BitTorrentTracker PerecTracker.org
BitTorrentTracker PerecTracker.org
    
Регистрация  ·  Вход
 
 · 
Забыли пароль?

  • Человек-муравей / Ant-Man (Пейтон Рид / Peyton Reed) [2015, США, Фантастика, боевик, комедия, приключения, BDRip] Dub

    Ответить на тему
     
    Автор Сообщение

    rechyn

    Создавать темы 26-Янв-2016 03:04

           

    [Цитировать]

    Человек-муравей / Ant-Man
    «Рожденный ползать взлетит до небес»
    -Год выпуска: 2015
    Выпущено: США / Marvel Studios Inc.
    Жанр: фантастика, боевик, комедия, приключения
    Продолжительность: 01:57:22
    Перевод: Профессиональный (полное дублирование) BD EUR |Лицензия|
    Cубтитры: нет-Режиссер:
    Пейтон Рид / Peyton Reed-В ролях:
    Пол Радд, Майкл Дуглас, Эванджелин Лилли, Кори Столл, Майкл Пенья, Бобби Каннавейл, Ти-Ай, Давид Дастмалчян, Эбби Райдер Фортсон, Джуди Грир, Энтони Маки, Вуд Харрис, Мартин Донован, Хейли Этвелл, Джон Слэттери, Гаррет Моррис, Нил Гамбургер, Род Халлетт, Джо Крест, Джо Букаро III-Описание:
    Вооружившись удивительной способностью уменьшаться в размере, но обладать при этом большой силой, мошенник Скотт Лэнг должен стать героем и помочь своему наставнику, доктору Хэнку Пиму, сохранить в тайне существование костюма Человека-муравья от угроз нового поколения.-Релиз групп
    | | IMDB | КиноПоиск | Сэмпл |-Качество: BDRip [Blu-Ray Disc EUR | 1080p | HDCLUB]
    Формат: AVI
    Видео: 720x384 (1.88:1), 23.976 fps, XviD build 67 ~1392 kbps avg, 0.21 bit/pixel
    Аудио: 48 kHz, AC3 Dolby Digital, 3/2 (L,C,R,l,r) + LFE ch, ~384 kbps avg-

    Скриншоты

    MediaInfo

    Общее
    Полное имя                               : D:\AnT-MaN_2015_BDRip_by_Dalemake.avi
    Формат                                   : AVI
    Формат/Информация                        : Audio Video Interleave
    Размер файла                             : 1,46 Гбайт
    Продолжительность                        : 1 ч. 57 м.
    Общий поток                              : 1785 Кбит/сек
    Программа кодирования                    : VirtualDubMod 1.5.10.3 | www.virtualdub-fr.org || (build 2550/release)
    Библиотека кодирования                   : VirtualDubMod build 2550/release
    Видео
    Идентификатор                            : 0
    Формат                                   : MPEG-4 Visual
    Профиль формата                          : Advanced Simple@L5
    Параметр BVOP формата                    : 1
    Параметр QPel формата                    : Нет
    Параметр GMC формата                     : Без точки перехода
    Параметр матрицы формата                 : Выборочная
    Идентификатор кодека                     : XVID
    Идентификатор кодека/Подсказка           : XviD
    Продолжительность                        : 1 ч. 57 м.
    Битрейт                                  : 1393 Кбит/сек
    Ширина                                   : 720 пикселей
    Высота                                   : 384 пикселя
    Соотношение сторон                       : 1,85:1
    Частота кадров                           : 23,976 кадра/сек
    Цветовое пространство                    : YUV
    Субдискретизация насыщенности            : 4:2:0
    Битовая глубина                          : 8 бит
    Тип развёртки                            : Прогрессивная
    Метод сжатия                             : С потерями
    Бит/(Пиксели*Кадры)                      : 0.210
    Размер потока                            : 1,14 Гбайт (78%)
    Библиотека кодирования                   : XviD 67
    Аудио
    Идентификатор                            : 1
    Формат                                   : AC-3
    Формат/Информация                        : Audio Coding 3
    Расширение режима                        : CM (complete main)
    Параметр Endianness формата              : Big
    Идентификатор кодека                     : 2000
    Продолжительность                        : 1 ч. 57 м.
    Вид битрейта                             : Постоянный
    Битрейт                                  : 384 Кбит/сек
    Каналы                                   : 6 каналов
    Расположение каналов                     : Front: L C R, Side: L R, LFE
    Частота                                  : 48,0 КГц
    Битовая глубина                          : 16 бит
    Метод сжатия                             : С потерями
    Размер потока                            : 322 Мбайт (21%)
    Выравнивание                             : Разделение по промежуткам
    Продолжительность промежутка             : 42  мс. (1,00 видеокадр)
    Время предзагрузки промежутка            : 500  мс.
    -
    Скачать .torrent

    Скачать торрент-файл бесплатно и на максимальной скорости!

    Как скачивать? · Что такое торрент? · Рейтинг и ограничения

    !ВНИМАНИЕ!
    Сайт не распространяет и не хранит электронные версии произведений, а занимается лишь лишь предоставлением доступа к создаваемому пользователями каталогу ссылок на торрент-файлы, которые содержат только списки хеш-сумм, убедительная просьба с жалобами обращаться напрямую к пользователю. Файлы для обмена на трекере предоставлены пользователями сайта, и администрация не несёт ответственности за их содержание. Просьба не заливать файлы, защищенные авторскими правами, а также файлы нелегального содержания!


    _________________
    [Профиль] [ЛС]
    Показать сообщения:    
    Ответить на тему

    Текущее время: Сегодня, в 08:12

    Часовой пояс: GMT + 2



    Вы не можете начинать темы
    Вы не можете отвечать на сообщения
    Вы не можете редактировать свои сообщения
    Вы не можете удалять свои сообщения
    Вы не можете голосовать в опросах
    Вы не можете прикреплять файлы к сообщениям
    Вы не можете скачивать файлы