Register  ·  Log in
Forgot password?

  • Юбилейный вечер Галины Волчек [2013, Россия, Концерт, SATRip] Современник

    Reply to topic
    Author Message


    Post 22-Dec-2013 19:10



    Юбилейный вечер Галины Волчек
    Название театра: Современник
    Страна: Россия
    Жанр: Концерт
    Год выпуска: 2013
    Продолжительность: 01:26:40
    Перевод: Не требуется
    Язык: Русский
    Cубтитры: нет
    Режиссёр: Галина Волчек
    В ролях: Артисты театра
    Описание: Ее называют лицом русского театра, бескомпромиссным режиссером, опорой для друзей, кумиром зрителей. 19 декабря у Галины Волчек юбилей. В этот день поздравить Галину Борисовну соберется весь цвет театральной Москвы. Татьяна Тарасова: "На многих ее спектаклях я проливала горькие слезы и заставала себя между сиденьями в слезах, и благодарна за эти потрясения".
    Качество видео: SATRip
    Формат видео: AVI
    Видео: 704x400 (1.76:1), 25 fps, XviD build 63, 1499 kbps avg, 0.21 bit/pixel
    Аудио: 48 kHz, MPEG Layer 3, 2 ch, 128.00 kbps avg


    Format : AVI
    Format/Info : Audio Video Interleave
    File size : 1 015 MiB
    Duration : 1h 26mn
    Overall bit rate : 1 638 Kbps
    Writing application : VirtualDubMod | || (build 2550/release)
    Writing library : VirtualDubMod build 2550/release
    Video #0
    ID : 0
    Format : MPEG-4 Visual
    Format profile : Advanced Simple@L5
    Format settings, BVOP : 2
    Format settings, QPel : No
    Format settings, GMC : No warppoints
    Format settings, Matrix : Default (MPEG)
    Codec ID : XVID
    Codec ID/Hint : XviD
    Duration : 1h 26mn
    Bit rate : 1 500 Kbps
    Width : 704 pixels
    Height : 400 pixels
    Display aspect ratio : 16:9
    Frame rate : 25.000 fps
    Color space : YUV
    Chroma subsampling : 4:2:0
    Bit depth : 8 bits
    Scan type : Progressive
    Compression mode : Lossy
    Bits/(Pixel*Frame) : 0.213
    Stream size : 930 MiB (92%)
    Writing library : XviD 63
    Audio #1
    ID : 1
    Format : MPEG Audio
    Format version : Version 1
    Format profile : Layer 3
    Mode : Joint stereo
    Mode extension : MS Stereo
    Codec ID : 55
    Codec ID/Hint : MP3
    Duration : 1h 26mn
    Bit rate mode : Constant
    Bit rate : 128 Kbps
    Channel(s) : 2 channels
    Sampling rate : 48.0 KHz
    Compression mode : Lossy
    Stream size : 79.4 MiB (8%)
    Alignment : Aligned on interleaves
    Interleave, duration : 40 ms (1.00 video frame)
    Interleave, preload duration : 504 ms
    Writing library : LAME3.98r
    Encoding settings : -m j -V 4 -q 2 -lowpass 17 -b 128

    Скриншот с названием постановки


    Download .torrent

    Download free and at maximum speed!

    How to Download? · What is a torrent? · Ratings and Limitations

    The site does not extend and does not store electronic(digital) versions of products, and only gives access to a reference catalogue created by users on torrent-files which contain only lists of the hash-sums, the earnest entreaty, with complaints(abuse) to access directly to the user. Files for an exchange on tracker are given by users of a site, and the administration does not bear the responsibility for their maintenance. The request to not fill in the files protected by copyrights, and also files of the illegal maintenance!

    [Profile] [PM]
    Display posts from previous:    
    Reply to topic

    The time now is: Today 12:00

    All times are GMT + 3 Hours

    You cannot post new topics in this forum
    You cannot reply to topics in this forum
    You cannot edit your posts in this forum
    You cannot delete your posts in this forum
    You cannot vote in polls in this forum
    You cannot attach files in this forum
    You cannot download files in this forum