BitTorrentTracker PerecTracker.org
BitTorrentTracker PerecTracker.org
    
Регистрация  ·  Вход
 
 · 
Забыли пароль?

  • Анаклет: Секретный агент / Anacleto: Agente secreto (Хавьер Руис Кальдера / Javier Ruiz Caldera) [2015, Испания, боевик, комедия, HDRip] DVO (Parovoz Production) + Original Spa

    Ответить на тему
     
    Автор Сообщение

    rechyn

    Создавать темы 26-Янв-2016 03:03

           

    [Цитировать]

    -Анаклет: Секретный агент / Anacleto: Agente secreto-Страна: Испания
    Жанр: боевик, комедия
    Год выпуска: 2015
    Продолжительность: 01:33:14
    Перевод: Любительский (двухголосый закадровый) [Parovoz Production]
    Cубтитры: нет
    Оригинальная аудиодорожка: испанский
    Режиссер: Хавьер Руис Кальдера/Javier Ruiz Caldera
    В ролях: Иманоль Ариас, Ким Гутьеррес, Росси де Пальма, Карлос Аресес, Александра Хименес, Сильвия Абриль, Хосе Корбачо, Эмилио Гутьеррес Каба, Берто Ромеро, Эдуардо Гомес
    Описание: У тридцатилетнего сотрудника службы безопасности Адольфо началась черная полоса в жизни. Его бросила любовь всей его жизни, а наемные убийцы во главе с только что бежавшим из тюрьмы Баскесом начали на него охоту. К тому же, он узнает, что его отец ведет двойную жизнь. Простой фермер оказывается секретным агентом, который 30 лет назад посадил Баскеса в тюрьму. Адольфо предстоит выйти из зоны комфорта и вместе со своим отцом, которого он совсем не понимает, избежать мести Баскеса, а между перестрелками и погонями попытаться вернуть свою возлюбленную.

    Качество видео: HDRip [рип с BDRip 720p]
    Формат видео: AVI
    Видео: 720x304, 23,976fps, XviD, 1834 kb/s,
    Аудио 1: Russian 48 kHz, AC3, 192 kb/s (2 ch)
    Аудио 2: Spanish: 48 kHz, AC3, 192 kb/s (2 ch)

    MediaInfo

    полное имя : D:\Разное\Анаклет Секретный агент.avi
    Формат : AVI
    Формат/Информация : Audio Video Interleave
    Размер файла : 1,45 Гбайт
    Продолжительность : 1 ч. 33 м.
    Общий поток : 2232 Кбит/сек
    Программа кодирования : VirtualDubMod 1.5.10.3 | www.virtualdub-fr.org || (build 2550/release)
    Библиотека кодирования : VirtualDubMod build 2550/release
    Видео
    Идентификатор : 0
    Формат : MPEG-4 Visual
    Профиль формата : Advanced Simple@L5
    Параметр BVOP формата : 1
    Параметр QPel формата : Нет
    Параметр GMC формата : Без точки перехода
    Параметр матрицы формата : Выборочная
    Идентификатор кодека : XVID
    Идентификатор кодека/Подсказка : XviD
    Продолжительность : 1 ч. 33 м.
    Битрейт : 1834 Кбит/сек
    Ширина : 720 пикселей
    Высота : 304 пикселя
    Соотношение сторон : 2,35:1
    Частота кадров : 23,976 (23976/1000) кадра/сек
    Цветовое пространство : YUV
    Субдискретизация насыщенности : 4:2:0
    Битовая глубина : 8 бит
    Тип развёртки : Прогрессивная
    Метод сжатия : С потерями
    Бит/(Пиксели*Кадры) : 0.349
    Размер потока : 1,19 Гбайт (82%)
    Библиотека кодирования : XviD 73
    Аудио #1
    Идентификатор : 1
    Формат : AC-3
    Формат/Информация : Audio Coding 3
    Расширение режима : CM (complete main)
    Параметр Endianness формата : Big
    Идентификатор кодека : 2000
    Продолжительность : 1 ч. 33 м.
    Вид битрейта : Постоянный
    Битрейт : 192 Кбит/сек
    Каналы : 2 канала
    Расположение каналов : Front: L R
    Частота : 48,0 КГц
    Частота кадров : 31,250 кадров/сек (1536 spf)
    Метод сжатия : С потерями
    Размер потока : 128 Мбайт (9%)
    Выравнивание : Разделение по промежуткам
    Продолжительность промежутка : 42 мс. (1,00 видеокадр)
    Время предзагрузки промежутка : 500 мс.
    Аудио #2
    Идентификатор : 2
    Формат : AC-3
    Формат/Информация : Audio Coding 3
    Расширение режима : CM (complete main)
    Параметр Endianness формата : Big
    Идентификатор кодека : 2000
    Продолжительность : 1 ч. 33 м.
    Вид битрейта : Постоянный
    Битрейт : 192 Кбит/сек
    Каналы : 2 канала
    Расположение каналов : Front: L R
    Частота : 48,0 КГц
    Частота кадров : 31,250 кадров/сек (1536 spf)
    Метод сжатия : С потерями
    Размер потока : 128 Мбайт (9%)
    Выравнивание : Разделение по промежуткам
    Продолжительность промежутка : 42 мс. (1,00 видеокадр)
    Время предзагрузки промежутка : 500 мс.

    Скриншоты

    Скачать .torrent

    Скачать торрент-файл бесплатно и на максимальной скорости!

    Как скачивать? · Что такое торрент? · Рейтинг и ограничения

    !ВНИМАНИЕ!
    Сайт не распространяет и не хранит электронные версии произведений, а занимается лишь лишь предоставлением доступа к создаваемому пользователями каталогу ссылок на торрент-файлы, которые содержат только списки хеш-сумм, убедительная просьба с жалобами обращаться напрямую к пользователю. Файлы для обмена на трекере предоставлены пользователями сайта, и администрация не несёт ответственности за их содержание. Просьба не заливать файлы, защищенные авторскими правами, а также файлы нелегального содержания!


    _________________
    [Профиль] [ЛС]
    Показать сообщения:    
    Ответить на тему

    Текущее время: Сегодня, в 20:48

    Часовой пояс: GMT + 2



    Вы не можете начинать темы
    Вы не можете отвечать на сообщения
    Вы не можете редактировать свои сообщения
    Вы не можете удалять свои сообщения
    Вы не можете голосовать в опросах
    Вы не можете прикреплять файлы к сообщениям
    Вы не можете скачивать файлы