BitTorrentTracker PerecTracker.org
BitTorrentTracker PerecTracker.org
    
Регистрация  ·  Вход
 
 · 
Забыли пароль?

  • Кон-Тики / Kon-Tiki (Хоаким Роннинг / Joachim Roenning, Эспен Сандберг / Espen Sandberg) [2012, Великобритания, Норвегия, Дания, Германия, Драма, Приключения, Биография, История, HDRip-AVC] Dub

    Ответить на тему
     
    Автор Сообщение

    rechyn

    Создавать темы 26-Янв-2016 03:03

           

    [Цитировать]

    -Кон-Тики / Kon-Tiki
    «Через океан в поисках истины»--Страна: Великобритания, Норвегия, Дания, Германия
    Жанр: Драма, Приключения, Биография, История
    Год выпуска: 2012
    Продолжительность: 01:49:11-Перевод: Профессиональный (дублированный)-Cубтитры: нет
    Оригинальная аудиодорожка: нет-Режиссер: Хоаким Роннинг / Joachim Roenning, Эспен Сандберг / Espen Sandberg-В ролях: Пал Сверре Валхейм Хэйген, Андерс Баасмо Кристиансен, Густаф Скарсгард, Одд Магнус Уильямсон, Тобиас Зантелман, Якоб Офтебро, Агнес Киттелсен, Томас Арнольд, Йорген Бертаге, Элинор Бурк, Мануэль Коши, Сэм Чэпман
    Описание: Приключенческая картина, в основе которой лежит подвиг всемирно известного путешественника Тура Хейердала, совершившего в 1947 году эпическую экспедицию — пересечение Тихого океана на маленьком шатком плотике Кон-Тики. Гигантские киты, схватки с голодными акулами, грозовой шторм, раздирающий ветер, битва за жизнь посреди бушующей стихии…. Героям предстоит проявить немалую силу и трудолюбие, чтобы этот день не стал последним. Это невероятное путешествие навсегда изменит людей, которые рискнули в него отправиться.---Качество видео: HDRip-AVC (Исходник неизвестен)
    Формат видео: MKV-Видео: MPEG-4 AVC, 1032x432 (2.40:1), 25.000 fps, 2400 kbps avg, 0.218 bit/pixel
    Аудио: 48 kHz, AC3 Dolby Digital, 3/2 (L,C,R,l,r) + LFE ch, ~448 kbps avg-

    MediaInfo

    Complete name : E:\РАЗДАЧИ\Kon Tiki (2012) HDRip-AVC.mkv
    Format : Matroska
    Format version : Version 2
    File size : 2.18 GiB
    Duration : 1h 49mn
    Overall bit rate : 2 861 Kbps
    Movie name : Kon-Tiki (2012) BDRip-AVC
    Encoded date : UTC 2016-01-21 23:40:57
    Writing application : mkvmerge v3.0.0 ('Hang up your Hang-Ups') built on Dec 12 2009 15:20:35
    Writing library : libebml v0.7.9 + libmatroska v0.8.1
    Cover : Yes
    Video
    ID : 1
    Format : AVC
    Format/Info : Advanced Video Codec
    Format profile : High@L4.1
    Format settings, CABAC : Yes
    Format settings, ReFrames : 10 frames
    Codec ID : V_MPEG4/ISO/AVC
    Duration : 1h 49mn
    Bit rate : 2 411 Kbps
    Width : 1 032 pixels
    Height : 432 pixels
    Display aspect ratio : 2.40:1
    Frame rate mode : Constant
    Frame rate : 25.000 fps
    Color space : YUV
    Chroma subsampling : 4:2:0
    Bit depth : 8 bits
    Scan type : Progressive
    Bits/(Pixel*Frame) : 0.216
    Stream size : 1.80 GiB (82%)
    Writing library : x264 core 130 r2273 b3065e6
    Encoding settings : cabac=1 / ref=10 / deblock=1:-2:-2 / analyse=0x3:0x133 / me=umh / subme=11 / psy=1 / psy_rd=1.04:0.05 / mixed_ref=1 / me_range=48 / chroma_me=1 / trellis=2 / 8x8dct=1 / cqm=0 / deadzone=21,11 / fast_pskip=0 / chroma_qp_offset=-3 / threads=9 / lookahead_threads=6 / sliced_threads=0 / nr=0 / decimate=0 / interlaced=0 / bluray_compat=0 / constrained_intra=0 / bframes=11 / b_pyramid=2 / b_adapt=2 / b_bias=0 / direct=3 / weightb=1 / open_gop=0 / weightp=2 / keyint=250 / keyint_min=23 / scenecut=40 / intra_refresh=0 / rc_lookahead=60 / rc=2pass / mbtree=0 / bitrate=2411 / ratetol=1.0 / qcomp=0.70 / qpmin=0 / qpmax=69 / qpstep=4 / cplxblur=20.0 / qblur=0.5 / vbv_maxrate=50000 / vbv_bufsize=62500 / nal_hrd=none / ip_ratio=1.35 / pb_ratio=1.25 / aq=1:0.80
    Default : Yes
    Forced : No
    Audio
    ID : 2
    Format : AC-3
    Format/Info : Audio Coding 3
    Mode extension : CM (complete main)
    Format settings, Endianness : Big
    Codec ID : A_AC3
    Duration : 1h 49mn
    Bit rate mode : Constant
    Bit rate : 448 Kbps
    Channel(s) : 6 channels
    Channel positions : Front: L C R, Side: L R, LFE
    Sampling rate : 48.0 KHz
    Bit depth : 16 bits
    Compression mode : Lossy
    Stream size : 350 MiB (16%)
    Title : Дубляж
    Language : Russian
    Default : No
    Forced : No

    Скриншот c названием фильма

    Скриншоты

    Скачать .torrent

    Скачать торрент-файл бесплатно и на максимальной скорости!

    Как скачивать? · Что такое торрент? · Рейтинг и ограничения

    !ВНИМАНИЕ!
    Сайт не распространяет и не хранит электронные версии произведений, а занимается лишь лишь предоставлением доступа к создаваемому пользователями каталогу ссылок на торрент-файлы, которые содержат только списки хеш-сумм, убедительная просьба с жалобами обращаться напрямую к пользователю. Файлы для обмена на трекере предоставлены пользователями сайта, и администрация не несёт ответственности за их содержание. Просьба не заливать файлы, защищенные авторскими правами, а также файлы нелегального содержания!


    _________________
    [Профиль] [ЛС]
    Показать сообщения:    
    Ответить на тему

    Текущее время: Сегодня, в 10:05

    Часовой пояс: GMT + 2



    Вы не можете начинать темы
    Вы не можете отвечать на сообщения
    Вы не можете редактировать свои сообщения
    Вы не можете удалять свои сообщения
    Вы не можете голосовать в опросах
    Вы не можете прикреплять файлы к сообщениям
    Вы не можете скачивать файлы