BitTorrentTracker PerecTracker.org
BitTorrentTracker PerecTracker.org
    
Регистрация  ·  Вход
 
 · 
Забыли пароль?

  • Приговорённые 2: Охота в пустыне / The Condemned 2 (Роэль Рейн / Roel Reiné) [2015, США, боевик, триллер, BDRip] Dub (iTunes)

    Ответить на тему
     
    Автор Сообщение

    rechyn

    Создавать темы 26-Янв-2016 03:03

           

    [Цитировать]

    Приговорённые 2: Охота в пустыне / The Condemned 2
    Страна: США
    Жанр: боевик, триллер
    Год выпуска: 2015
    Продолжительность: 01:30:14
    Перевод: Профессиональный (дублированный) iTunes
    Cубтитры: русские форсированные надписи
    Режиссер: Роэль Рейн / Roel Reiné
    В ролях: Рэнди Ортон, Эрик Робертс, Уэс Стьюди, Стивен Майкл Квезада
    Описание: Уилл Таннер из тех, кто выбрал для себя профессию «охотников за головами». Однажды он попадает в серьезные неприятности: его задерживает полиция, и ему выносят приговор. Его и бывшую его команду вовлекают в игру на выживание под объективами камер в угоду интересам благополучной публики. Ставки сделаны, приговоренные должны проявить в жестких обстоятельствах максимум своих способностей: сражаться и избегать ловушек, быть выносливыми и изобретательными.
    Доп. информация:
    Качество видео: BDRip | грешник@@/Blu-ray 1080p/TFile
    Формат видео: AVI
    Видео: 720x400 (1.80:1), 23.976 fps, XviD build 73 ~1920 kbps avg, 0.28 bit/pixel
    Аудио: 48 kHz, AC3 Dolby Digital, 3/2 (L,C,R,l,r) + LFE ch, ~384 kbps
    Формат субтитров: softsub (SRT)

    MediaInfo

    General
    Complete name : C:\Users\User\Desktop\RuTracker\The.Condemned.2.2015.BDRip.Dub_by_LBS\The.Condemned.2.2015.BDRip.Dub_by_LBS.avi
    Format : AVI
    Format/Info : Audio Video Interleave
    File size : 1.46 GiB
    Duration : 1h 30mn
    Overall bit rate : 2 314 Kbps
    Director : Last Boy Scout
    Writing application : VirtualDubMod 1.5.10.3 | www.virtualdub-fr.org || (build 2550/release)
    Copyright : perectracker.org 25.01.2016
    Comment : BDRip Dub
    Video
    ID : 0
    Format : MPEG-4 Visual
    Format profile : Advanced Simple@L5
    Format settings, BVOP : 1
    Format settings, QPel : No
    Format settings, GMC : No warppoints
    Format settings, Matrix : Custom
    Codec ID : XVID
    Codec ID/Hint : XviD
    Duration : 1h 30mn
    Bit rate : 1 921 Kbps
    Width : 720 pixels
    Height : 400 pixels
    Display aspect ratio : 16:9
    Frame rate : 23.976 fps
    Color space : YUV
    Chroma subsampling : 4:2:0
    Bit depth : 8 bits
    Scan type : Progressive
    Compression mode : Lossy
    Bits/(Pixel*Frame) : 0.278
    Stream size : 1.21 GiB (83%)
    Writing library : XviD 73
    Audio
    ID : 1
    Format : AC-3
    Format/Info : Audio Coding 3
    Mode extension : CM (complete main)
    Format settings, Endianness : Big
    Codec ID : 2000
    Duration : 1h 30mn
    Bit rate mode : Constant
    Bit rate : 384 Kbps
    Channel(s) : 6 channels
    Channel positions : Front: L C R, Side: L R, LFE
    Sampling rate : 48.0 KHz
    Bit depth : 16 bits
    Compression mode : Lossy
    Stream size : 248 MiB (17%)
    Alignment : Split accross interleaves
    Interleave, duration : 42 ms (1.00 video frame)
    Interleave, preload duration : 500 ms

    Скриншот с названием фильма

    Скриншоты

    -
    Скачать .torrent

    Скачать торрент-файл бесплатно и на максимальной скорости!

    Как скачивать? · Что такое торрент? · Рейтинг и ограничения

    !ВНИМАНИЕ!
    Сайт не распространяет и не хранит электронные версии произведений, а занимается лишь лишь предоставлением доступа к создаваемому пользователями каталогу ссылок на торрент-файлы, которые содержат только списки хеш-сумм, убедительная просьба с жалобами обращаться напрямую к пользователю. Файлы для обмена на трекере предоставлены пользователями сайта, и администрация не несёт ответственности за их содержание. Просьба не заливать файлы, защищенные авторскими правами, а также файлы нелегального содержания!


    _________________
    [Профиль] [ЛС]
    Показать сообщения:    
    Ответить на тему

    Текущее время: Сегодня, в 22:48

    Часовой пояс: GMT + 2



    Вы не можете начинать темы
    Вы не можете отвечать на сообщения
    Вы не можете редактировать свои сообщения
    Вы не можете удалять свои сообщения
    Вы не можете голосовать в опросах
    Вы не можете прикреплять файлы к сообщениям
    Вы не можете скачивать файлы