BitTorrentTracker PerecTracker.org
BitTorrentTracker PerecTracker.org
    
Регистрация  ·  Вход
 
 · 
Забыли пароль?

  • Маршал / Marsal (Винко Брешан/Vinko Brešan) [1999, Хорватия, комедия, DVDRip-AVC] (Antonio Salazar) + Sub Rus

    Ответить на тему
     
    Автор Сообщение

    Columb

    Создавать темы 22-Дек-2013 18:08

           

    [Цитировать]

    Маршал / Marsal
    Страна: Хорватия
    Жанр: комедия
    Год выпуска: 1999
    Продолжительность: 01:31:21
    Перевод: Субтитры Antonio Salazar
    Cубтитры: русские
    Оригинальная аудиодорожка: хорватский
    Режиссер: Винко Брешан/Vinko Brešan
    В ролях: Дражен Кюн, Линда Бегонья, Илия Ивезич, Иво Грегуревич, Борис Бузанчич, Ксения Паич
    Описание: В небольшом городке на адриатическом острове появляется призрак покойного маршала Тито, что встречает различную людскую реакцию. Полицейского Стипана командируют на родной остров, чтобы разобраться в ситуации. На место также массово прибывают старые партизаны-коммунисты, желающие вспомнить молодость. Местный мэр воспринимает это как возможность превратить город в прибыльную туристическую зону. Но находятся люди, верящие в то, что Тито - не призрак, а настоящий человек, который может стать их знаменем в борьбе за возвращение социализма...

    Субтитры

    1
    00:00:04,360 --> 00:00:06,078
    1979 год. После долгой болезни
    2
    00:00:06,280 --> 00:00:08,430
    И.Б.Тито ампутировали левую ногу
    3
    00:00:08,600 --> 00:00:10,795
    1980. Умер товарищ Тито
    4
    00:00:11,040 --> 00:00:13,235
    1990. Умерла коммунистическая система во всей Югославии
    5
    00:00:13,440 --> 00:00:15,112
    и во всей Европе.
    6
    00:00:15,320 --> 00:00:17,959
    1998. На нашем маленьком острове люди продолжают жить счастливо.
    7
    00:01:14,680 --> 00:01:15,999
    Проехал!
    8
    00:01:46,000 --> 00:01:49,400
    (Поют "Интернационал")
    9
    00:02:54,680 --> 00:02:58,753
    МАРШАЛ
    10
    00:03:02,040 --> 00:03:05,476
    Основано на реальных событиях
    11
    00:03:05,477 --> 00:03:09,177
    Фильм Винко Брешана
    12
    00:04:50,178 --> 00:04:54,178
    "Лечебница"
    13
    00:05:37,120 --> 00:05:38,439
    Будьте здоровы!
    14
    00:05:39,200 --> 00:05:40,599
    Привет, Стипе!
    15
    00:06:05,120 --> 00:06:07,839
    Дуйе, откуда у тебя такой здоровый крест?
    16
    00:06:08,240 --> 00:06:10,674
    Он был со мной всегда.
    17
    00:06:12,120 --> 00:06:14,350
    Но ты же был в партии!
    18
    00:06:15,360 --> 00:06:17,396
    Я всегда носил его,
    19
    00:06:18,040 --> 00:06:20,270
    но скрывал под рубашкой.
    20
    00:06:20,760 --> 00:06:21,954
    Стипе!
    21
    00:06:22,160 --> 00:06:24,594
    -Привет, Лука!
    - Ты к нам отдохнуть приехал?
    Качество видео: DVDRip-AVC
    Формат видео: AVI
    Видео: AVC, 672x536 (5:4), 25 fps, 1088 kbps
    Аудио: AAC, 48 kHz, 128 kbps, 2 ch
    Формат субтитров: softsub (SRT)

    MediaInfo

    Общее
    Полное имя : J:\Marsal.1999\Marsal(1999).avi
    Формат : MPEG-4
    Профиль формата : Base Media / Version 2
    Идентификатор кодека : mp42
    Размер файла : 797 Мбайт
    Продолжительность : 1 ч. 31 м.
    Режим общего битрейта : Переменный
    Общий поток : 1220 Кбит/сек
    Дата кодирования : UTC 2009-09-18 22:58:24
    Дата пометки : UTC 2009-09-19 02:24:50
    Видео
    Идентификатор : 1
    Формат : AVC
    Формат/Информация : Advanced Video Codec
    Профиль формата : Main@L3.0
    Параметр CABAC формата : Да
    Параметр ReFrames формата : 2 кадра
    Идентификатор кодека : avc1
    Идентификатор кодека/Информация : Advanced Video Coding
    Продолжительность : 1 ч. 31 м.
    Вид битрейта : Переменный
    Битрейт : 1088 Кбит/сек
    Максимальный битрейт : 3539 Кбит/сек
    Ширина : 672 пикселя
    Высота : 536 пикселей
    Соотношение сторон : 5:4
    Соотношение сторон в оригинале : 4:3
    Режим частоты кадров : Постоянный
    Частота кадров : 25,000 кадров/сек
    Стандарт вещания : PAL
    Цветовое пространство : YUV
    Субдискретизация насыщенности : 4:2:0
    Битовая глубина : 8 бит
    Тип развёртки : Прогрессивная
    Бит/(Пиксели*Кадры) : 0.121
    Размер потока : 711 Мбайт (89%)
    Язык : English
    Дата кодирования : UTC 2009-09-18 22:58:24
    Дата пометки : UTC 2009-09-19 02:24:50
    Аудио
    Идентификатор : 2
    Формат : AAC
    Формат/Информация : Advanced Audio Codec
    Профиль формата : LC
    Идентификатор кодека : 40
    Продолжительность : 1 ч. 31 м.
    Вид битрейта : Переменный
    Битрейт : 128 Кбит/сек
    Максимальный битрейт : 138 Кбит/сек
    Каналы : 2 канала
    Расположение каналов : Front: L R
    Частота : 48,0 КГц
    Метод сжатия : С потерями
    Размер потока : 83,6 Мбайт (10%)
    Заголовок : Kroatisch
    Язык : scr
    Дата кодирования : UTC 2009-09-18 22:58:24
    Дата пометки : UTC 2009-09-19 02:24:50

    Скриншот c названием фильма

    Скриншоты





    Скачать .torrent

    Скачать торрент-файл бесплатно и на максимальной скорости!

    Как скачивать? · Что такое торрент? · Рейтинг и ограничения

    !ВНИМАНИЕ!
    Сайт не распространяет и не хранит электронные версии произведений, а занимается лишь лишь предоставлением доступа к создаваемому пользователями каталогу ссылок на торрент-файлы, которые содержат только списки хеш-сумм, убедительная просьба с жалобами обращаться напрямую к пользователю. Файлы для обмена на трекере предоставлены пользователями сайта, и администрация не несёт ответственности за их содержание. Просьба не заливать файлы, защищенные авторскими правами, а также файлы нелегального содержания!

    [Профиль] [ЛС]
    Показать сообщения:    
    Ответить на тему

    Текущее время: Сегодня, в 18:59

    Часовой пояс: GMT + 2



    Вы не можете начинать темы
    Вы не можете отвечать на сообщения
    Вы не можете редактировать свои сообщения
    Вы не можете удалять свои сообщения
    Вы не можете голосовать в опросах
    Вы не можете прикреплять файлы к сообщениям
    Вы не можете скачивать файлы