BitTorrentTracker PerecTracker.org
BitTorrentTracker PerecTracker.org
    
Регистрация  ·  Вход
 
 · 
Забыли пароль?

  • Иллюзия обмана / Now You See Me (Луи Летерье / Louis Leterrier) [2013, Франция, США, триллер, криминал, детектив, BDRip-AVC] [Extended Cut] Dub + 3xAVO + Original (Eng) + Sub (Rus, Eng)

    Ответить на тему
     
    Автор Сообщение

    rechyn

    Создавать темы 25-Янв-2016 14:48

           

    [Цитировать]

    Иллюзия обмана / Now You See Me
    Страна: Франция, США
    Жанр: триллер, криминал, детектив
    Год выпуска: 2013
    Продолжительность: 02:04:48
    Перевод#1: Профессиональный (дублированный), со вставками Сербина
    Перевод#2: Авторский (одноголосый закадровый), Ю. Сербин (отдельно)
    Перевод#3: Авторский (одноголосый закадровый), А. Гаврилов (отдельно)
    Перевод#4: Авторский (одноголосый закадровый), Л. Володарский (отдельно)
    Cубтитры: русские, английские
    Оригинальная аудиодорожка: английский
    Режиссер: Луи Летерье / Louis Leterrier
    В ролях: Марк Руффало, Джесси Айзенберг, Вуди Харрельсон, Айла Фишер, Дэйв Франко, Мелани Лоран, Морган Фриман, Майкл Кейн, Майкл Келли, Коммон
    Описание: Команда иллюзионистов проворачивает дерзкие ограбления прямо во время своих шоу, играя в кошки-мышки с агентами ФБР

    Исходник: Иллюзия обмана / Now You See Me [Extended cut] (2013) BDRemux
    Качество видео: BDRip-AVC | | sample
    Формат видео: MKV
    Видео кодек: x264
    Видео: AVC 1152x480 (2.40:1), 23.976 fps, ~4100 Kbps, 0.31 bit/pixel
    Аудио #1: Russian AC3 6ch 48kHz 448Kbps | Dub, со вставками Сербина
    Аудио #2: English AC3 6ch 48kHz 448Kbps | Original
    Аудио #3: Russian AC3 6ch 48kHz 448Kbps | AVO Сербин (отдельным файлом)
    Аудио #4: Russian AC3 6ch 48kHz 448Kbps | AVO Гаврилов (отдельным файлом)
    Аудио #5: Russian AC3 6ch 48kHz 448Kbps | AVO Володарский (отдельным файлом)
    Формат субтитров: softsub (SRT)
    Главы: есть

    Дороги

    За дубляж со вставками спасибо FILVOVAN
    За Сербина и Володарского спасибо меценатам с HDCLUB и e180, за Гаврилова - пользователям с HDTRACKER
    MediaInfo

    x264

    --[Information] [06.11.2013 22:24:46] x264 [info]: frame I:1573 Avg QP:14.78 size: 99154
    --[Information] [06.11.2013 22:24:46] x264 [info]: frame P:40289 Avg QP:18.42 size: 35783
    --[Information] [06.11.2013 22:24:46] x264 [info]: frame B:137674 Avg QP:19.16 size: 16330
    --[Information] [06.11.2013 22:24:46] x264 [info]: consecutive B-frames: 2.3% 4.1% 8.9% 21.0% 17.5% 35.7% 4.7% 1.1% 2.3% 0.5% 1.1% 0.2% 0.3% 0.1% 0.1% 0.0% 0.2%
    --[Information] [06.11.2013 22:24:46] x264 [info]: kb/s:4108.79
    General
    Complete name : E:\...\Now.You.See.Me.2013.Extended.BDRip.x264.DD5.1.Rus.Eng-E76.mkv
    Format : Matroska
    Format version : Version 4 / Version 2
    File size : 4.37 GiB
    Duration : 2h 4mn
    Overall bit rate : 5 008 Kbps
    Movie name : Now.You.See.Me.2013.Extended.BDRip.x264.DD5.1.Rus.Eng-E76
    Encoded date : UTC 2013-11-06 22:09:32
    Writing application : mkvmerge v6.2.0 ('Promised Land') built on Apr 28 2013 12:22:01
    Writing library : libebml v1.3.0 + libmatroska v1.4.0
    Video
    ID : 1
    Format : AVC
    Format/Info : Advanced Video Codec
    Format profile : High@L4.1
    Format settings, CABAC : Yes
    Format settings, ReFrames : 12 frames
    Codec ID : V_MPEG4/ISO/AVC
    Bit rate : 4 110 Kbps
    Width : 1 152 pixels
    Height : 480 pixels
    Display aspect ratio : 2.40:1
    Frame rate mode : Variable
    Original frame rate : 23.976 fps
    Color space : YUV
    Chroma subsampling : 4:2:0
    Bit depth : 8 bits
    Scan type : Progressive
    Bits/(Pixel*Frame) : 0.310
    Title : Encode by Enclave76
    Writing library : x264 core 138 r2358kMod 9e941d1
    Encoding settings : cabac=1 / ref=12 / deblock=1:-3:-3 / analyse=0x3:0x113 / me=umh / subme=11 / psy=1 / fade_compensate=0.00 / psy_rd=1.00:0.00 / mixed_ref=1 / me_range=48 / chroma_me=1 / trellis=2 / 8x8dct=1 / cqm=0 / deadzone=21,11 / fast_pskip=0 / chroma_qp_offset=-2 / threads=6 / lookahead_threads=1 / sliced_threads=0 / nr=0 / decimate=0 / interlaced=0 / bluray_compat=0 / constrained_intra=0 / bframes=16 / b_pyramid=2 / b_adapt=2 / b_bias=0 / direct=3 / weightb=1 / open_gop=0 / weightp=2 / keyint=240 / keyint_min=23 / scenecut=40 / intra_refresh=0 / rc_lookahead=60 / rc=2pass / mbtree=1 / bitrate=4110 / ratetol=1.0 / qcomp=0.70 / qpmin=0 / qpmax=69 / qpstep=4 / cplxblur=20.0 / qblur=0.5 / vbv_maxrate=50000 / vbv_bufsize=62500 / nal_hrd=none / ip_ratio=1.40 / aq=1:1.00 / zones=167830,179535,q=30
    Language : English
    Default : No
    Forced : No
    Matrix coefficients : BT.709
    Audio #1
    ID : 2
    Format : AC-3
    Format/Info : Audio Coding 3
    Mode extension : CM (complete main)
    Format settings, Endianness : Big
    Codec ID : A_AC3
    Duration : 2h 4mn
    Bit rate mode : Constant
    Bit rate : 448 Kbps
    Channel(s) : 6 channels
    Channel positions : Front: L C R, Side: L R, LFE
    Sampling rate : 48.0 KHz
    Bit depth : 16 bits
    Compression mode : Lossy
    Stream size : 400 MiB (9%)
    Title : Dub
    Language : Russian
    Default : Yes
    Forced : No
    Audio #2
    ID : 3
    Format : AC-3
    Format/Info : Audio Coding 3
    Mode extension : CM (complete main)
    Format settings, Endianness : Big
    Codec ID : A_AC3
    Duration : 2h 4mn
    Bit rate mode : Constant
    Bit rate : 448 Kbps
    Channel(s) : 6 channels
    Channel positions : Front: L C R, Side: L R, LFE
    Sampling rate : 48.0 KHz
    Bit depth : 16 bits
    Compression mode : Lossy
    Stream size : 400 MiB (9%)
    Title : Original
    Language : English
    Default : No
    Forced : No
    Text #1
    ID : 4
    Format : UTF-8
    Codec ID : S_TEXT/UTF8
    Codec ID/Info : UTF-8 Plain Text
    Title : notabenoid
    Language : Russian
    Default : No
    Forced : No
    Text #2
    ID : 5
    Format : UTF-8
    Codec ID : S_TEXT/UTF8
    Codec ID/Info : UTF-8 Plain Text
    Language : English
    Default : No
    Forced : No
    Text #3
    ID : 6
    Format : UTF-8
    Codec ID : S_TEXT/UTF8
    Codec ID/Info : UTF-8 Plain Text
    Title : SDH
    Language : English
    Default : No
    Forced : No
    Text #4
    ID : 7
    Format : UTF-8
    Codec ID : S_TEXT/UTF8
    Codec ID/Info : UTF-8 Plain Text
    Title : SDH Colored
    Language : English
    Default : No
    Forced : No
    Menu
    00:00:00.000 : 00:00:00.000
    00:08:26.548 : 00:08:26.548
    ...
    01:54:24.607 : 01:54:24.607

    Скриншоты





    vs source
    => Новые релизы в AVC | | Заказ рипов в AVC <=
    Скачать .torrent

    Скачать торрент-файл бесплатно и на максимальной скорости!

    Как скачивать? · Что такое торрент? · Рейтинг и ограничения

    !ВНИМАНИЕ!
    Сайт не распространяет и не хранит электронные версии произведений, а занимается лишь лишь предоставлением доступа к создаваемому пользователями каталогу ссылок на торрент-файлы, которые содержат только списки хеш-сумм, убедительная просьба с жалобами обращаться напрямую к пользователю. Файлы для обмена на трекере предоставлены пользователями сайта, и администрация не несёт ответственности за их содержание. Просьба не заливать файлы, защищенные авторскими правами, а также файлы нелегального содержания!


    _________________
    [Профиль] [ЛС]
    Показать сообщения:    
    Ответить на тему

    Текущее время: Сегодня, в 16:37

    Часовой пояс: GMT + 2



    Вы не можете начинать темы
    Вы не можете отвечать на сообщения
    Вы не можете редактировать свои сообщения
    Вы не можете удалять свои сообщения
    Вы не можете голосовать в опросах
    Вы не можете прикреплять файлы к сообщениям
    Вы не можете скачивать файлы