BitTorrentTracker PerecTracker.org
BitTorrentTracker PerecTracker.org
    
Регистрация  ·  Вход
 
 · 
Забыли пароль?

  • Тонуть / Drown (Стивен Дэвис / Stephen Davis, Дин Френсис / Dean Francis, Рэймонд Чан / Raymond Chan) [2015, Австралия, Драма, спорт, DVB] VO

    Ответить на тему
     
    Автор Сообщение

    rechyn

    Создавать темы 24-Янв-2016 14:03

           

    [Цитировать]

    Тонуть / Drown
    Страна: Австралия
    Жанр: Драма, спорт
    Год выпуска: 2015
    Продолжительность: 01:28:57
    Перевод: Одноголосый (закадровый)
    Cубтитры: нет
    Режиссер: Стивен Дэвис / Stephen Davis, Дин Френсис / Dean Francis, Рэймонд Чан / Raymond Chan
    В ролях: Мэтт Леветт, Мая Стенж, Джек Мэтьюз, Гарри Кук, Мэг МакДермотт, Кимберли Лим, Робин Гоннелла, Люси Грин
    Описание: Фильм рассказывает историю о трех спасателях-серфингистах, которые решают как следует покутить. Ревность, гомофобные страхи и безответная страсть — все это приведет к трагическим последствиям


    Сэмпл: http://sendfile.su/1196464
    Качество видео: DVB
    Формат видео: MKV
    Видео: MPEG Video 2: 720х576@1024х576 (16:9), 25 fps; ~7656 kbps
    Аудио: MPEG Audio 2, 2 ch, 48 kHz, 192 kbps

    MediaInfo

    General
    Unique ID : 183671454247452916462095788462901078984 (0x8A2DD5DA9311800AAF079EB9BFC4ABC8)
    Complete name : D:Zona donwladsDrown.mkv
    Format : Matroska
    Format version : Version 4 / Version 2
    File size : 4.76 GiB
    Duration : 1h 28mn
    Overall bit rate mode : Variable
    Overall bit rate : 7 656 Kbps
    Encoded date : UTC 2016-01-21 20:57:09
    Writing application : mkvmerge v8.3.0 ('Over the Horizon') 32bit
    Writing library : libebml v1.3.1 + libmatroska v1.4.2
    Video
    ID : 1
    Format : MPEG Video
    Format version : Version 2
    Format profile : Main@Main
    Format settings, BVOP : Yes
    Format settings, Matrix : Custom
    Format settings, GOP : M=3, N=7
    Codec ID : V_MPEG2
    Codec ID/Info : MPEG 1 or 2 Video
    Duration : 1h 28mn
    Bit rate mode : Variable
    Bit rate : 7 461 Kbps
    Maximum bit rate : 9 000 Kbps
    Width : 720 pixels
    Height : 576 pixels
    Display aspect ratio : 16:9
    Frame rate mode : Constant
    Frame rate : 25.000 fps
    Standard : PAL
    Color space : YUV
    Chroma subsampling : 4:2:0
    Bit depth : 8 bits
    Scan type : Progressive
    Compression mode : Lossy
    Bits/(Pixel*Frame) : 0.720
    Time code of first frame : 00:00:00:00
    Time code source : Group of pictures header
    GOP, Open/Closed : Closed
    Stream size : 4.64 GiB (97%)
    Default : Yes
    Forced : No
    Color primaries : BT.601 PAL
    Transfer characteristics : BT.470 System B, BT.470 System G
    Matrix coefficients : BT.601
    Audio
    ID : 2
    Format : AC-3
    Format/Info : Audio Coding 3
    Mode extension : CM (complete main)
    Format settings, Endianness : Big
    Codec ID : A_AC3
    Duration : 1h 28mn
    Bit rate mode : Constant
    Bit rate : 192 Kbps
    Channel(s) : 2 channels
    Channel positions : Front: L R
    Sampling rate : 48.0 KHz
    Frame rate : 31.250 fps (1536 spf)
    Compression mode : Lossy
    Stream size : 122 MiB (3%)
    Language : Russian
    Default : Yes
    Forced : No
    Menu
    00:00:00.000 : :Chapter 01
    00:05:20.880 : :Chapter 02
    00:13:56.640 : :Chapter 03
    00:23:50.800 : :Chapter 04
    00:30:46.040 : :Chapter 05
    00:36:53.680 : :Chapter 06
    00:48:42.640 : :Chapter 07
    01:00:32.720 : :Chapter 08
    01:13:00.040 : :Chapter 09
    01:24:43.680 : :Chapter 10
    01:28:57.440 : :Chapter 11

    Скриншот c названием фильма

    Скриншоты





    Скачать .torrent

    Скачать торрент-файл бесплатно и на максимальной скорости!

    Как скачивать? · Что такое торрент? · Рейтинг и ограничения

    !ВНИМАНИЕ!
    Сайт не распространяет и не хранит электронные версии произведений, а занимается лишь лишь предоставлением доступа к создаваемому пользователями каталогу ссылок на торрент-файлы, которые содержат только списки хеш-сумм, убедительная просьба с жалобами обращаться напрямую к пользователю. Файлы для обмена на трекере предоставлены пользователями сайта, и администрация не несёт ответственности за их содержание. Просьба не заливать файлы, защищенные авторскими правами, а также файлы нелегального содержания!


    _________________
    [Профиль] [ЛС]
    Показать сообщения:    
    Ответить на тему

    Текущее время: Сегодня, в 22:17

    Часовой пояс: GMT + 2



    Вы не можете начинать темы
    Вы не можете отвечать на сообщения
    Вы не можете редактировать свои сообщения
    Вы не можете удалять свои сообщения
    Вы не можете голосовать в опросах
    Вы не можете прикреплять файлы к сообщениям
    Вы не можете скачивать файлы