BitTorrentTracker PerecTracker.org
BitTorrentTracker PerecTracker.org
    
Регистрация  ·  Вход
 
 · 
Забыли пароль?

  • Агент Картер / Agent Carter (Сезон 1-2, Серия 1-18 из 18) (Луис Д'Эспозито, Питер Лето) [2015-2016 , Фантастика, боевик, приключения, криминал, драма , WEB-DLRip-AVC 1080p] [MVO] [LostFilm , Nevafilm , English] + [Subs Rus,ENG]

    Ответить на тему
     
    Автор Сообщение

    Враг Нароода

    Создавать темы 24-Янв-2016 13:04

           

    [Цитировать]

    ----Агент Картер / Agent Carter Сезон 1-2, Серия 1-18 из 18----Год выпуска: 2015-2016
    Выпущено: США, ABC Studios, Marvel Studios Inc.
    Жанр: Фантастика, боевик, приключения, криминал, драма
    Продолжительность: 00:43:00
    Сезон: 1-2
    Серии: 1-18
    Количество серий в сезоне: 18
    1 Сезон :
    Озвучка 1 :Многоголосое профессиональное закадровое озвучание - LostFilm
    Озвучка 2:Дубляж, Nevafilm
    Озвучка 3: Профессиональный многоголосый - Английский - Оригинал
    2 Сезон :
    Озвучка 1 :Многоголосое профессиональное закадровое озвучание - LostFilm
    Озвучка 2:Дубляж, Nevafilm Серии: 1-5
    Озвучка 2: Профессиональный многоголосый - Английский - Оригинал
    Субтитры: Русские , Английские --Официальный сайт
    --Режиссер:Луис Д'Эспозито, Питер Лето, Джо Руссо, Скотт Уинэнт--Сценаристы:Стивен Макфили, Кристофер Маркус, Эрик Пирсон, Энди Бушелл--В ролях:Хейли Этвелл (Пегги Картер), Доминик Купер (Говард Старк), Джеймс Д’Арси (Эдвин Джарвис), Миген Фэй (Мириам Фрай), Линдси Фонсека (Энджи Мартинелли), Бриджит Риган (Дотти Андервуд), Ши Уигхэм (Роджер Дули), Энвер Гьокай (Дэниел Суза), Чад Майкл Мюррей (Джек Томпсон).--О сериале "Агент Картер"«Агент Картер» — фантастический боевик по мотивам комиксов Marvel, сюжет которого связан с событиями блокбастера «Первый мститель» и сериала «Агенты Щ.И.Т.» (Marvel's Agents of S.H.I.E.L.D. ). В создании нового шоу приняли участие сценаристы «Первого мстителя» и один из режиссеров его сиквела. Также над сериалом поработал постановщик и автор сценария «Короткометражки Marvel: Агент Картер». Она вышла в 2013 году, и с тех пор преданные фанаты вселенной Marvel ждали, когда кто-нибудь наконец займется отдельным проектом об этой героине. Стоит заметить, что благодаря тщательному кастингу, основательно проработанной истории и неповторимой атмосфере послевоенной Америки сериал «Агент Картер» придется по вкусу не только знатокам комиксов, но и любому ценителю захватывающих шпионских историй.
    Сюжет:
    1946 год, послевоенная Америка. В мире, где мужчины наслаждаются отголосками своей боевой славы, а женщины пребывают в их тени, полная сил и энтузиазма Пегги Картер (Хейли Этвелл) чувствует себя лишней. День за днем ей приходится разгребать завалы скучных документов в Стратегическом научном резерве, страдая от трагической потери Стива Роджерса и невозможности реализовать свои шпионские таланты. Но все меняется, когда к ней обращается старый знакомый Говард Старк (Доминик Купер) с просьбой найти и наказать недоброжелателей, опорочивших его имя. Помогать Пегги будет дворецкий Говарда Джарвис (Джеймс Д’Арси), обязанный выполнять любую просьбу своей временной начальницы. Благодаря новому заданию секретный агент Картер сможет трудиться в полную силу, паралелльно заглушая терзающую ее боль и доказывая окружающим, что женщины тоже имеют право на карьеру и самореализацию. Однако есть одно «но»: если кто-то узнает о секретной миссии Пегги, она проведет остаток жизни в тюрьме как изменница родины или даже столкнется с гораздо более серьезными последствиями.----Качество :WEB-DLRip-AVC 1080p
    Формат: MKV
    Видео кодек: H264
    Видео: 5098Кбит/сек,1920х1080(16.9),в 23.976кадр/сек,AVC(High@L4)(CABAC/4 Ref Frames)
    Аудио Кодек:AC3
    Аудио #1:AC3 , 384 Kbps, 48.0 KHz, 6 ch- - LostFilm
    Аудио #2: AC3, 192 Kbps, 48.0 KHz, 2 ch - - Nevafilm
    Аудио #3: AC3,384 Kbps, 48.0 KHz,6 ch - - English--

    Доп. информация:

    Звуковая дорожка сделана путем наложения чистого голоса озвучивателей на центральный канал оригинальной дорожки. Качество идентично звуковой дорожке.
    --

    Список эпизодов

    1 Сезон :

    01 Это еще не конец (Now is Not The End)
    02 Мост и тоннель (Bridge and Tunnel)
    03 Течение времени (Time and Tide)
    04 Кнопка «Блицкриг» (The Blitzkrieg Button)
    05 Железный потолок (The Iron Ceiling)
    06 Грех в заблуждении (A Sin to Err)
    07 Капут (SNAFU)
    08 Прощальная речь (Valediction)

    2 Сезон :

    01 Леди в озере (The Lady in the Lake)
    02 Взгляд в темноту (A View in the Dark)
    03 Ангелы получше (Better Angels)
    04 Дым и зеркала (Smoke & Mirrors)
    05 Ядерное дело (The Atomic Job)
    06 Душа компании (Life of the Party)
    07 Монстры (Monsters)
    08 На пороге тайны (The Edge of Mystery)
    09 Немного песен и танцев (A Little Song and Dance)
    10 Голливудский финал (Hollywood Ending)
    --

    MediaInfo 1 Сезон

    General
    Уникальный идентификатор : 188130753917609166321425519773930864179 (0x8D88AA4D5D9EDC76A5ED39DF6331BE33)
    Полное имя : G:\К ИНО\ФАНТАСТИКА\Агент Картер\Agent_Carter_2015-2016_S01-S02_RUS_ENG[LostFilm]_N.B_WEB-DLRip_1080p\S01\Agent_Carter_S01E01_2хRUS_ENG[LostFilm_NevaFilm]_N.B_WEB-DLRip_1080p.mkv
    Формат : Matroska
    Версия формата : Version 4 / Version 2
    Размер файла : 1.80 GiB
    Продолжительность : 42mn 37s
    Общий поток : 6 061 Kbps
    Название фильма : Agent_Carter_S01E01_2хRUS_ENG[LostFilm_NevaFilm]_N.B_WEB-DLRip_1080p
    Дата кодирования : UTC 2016-01-22 09:56:53
    Программа кодирования : mkvmerge v8.8.0 ('Wind at my back') 64bit
    Библиотека кодирования : libebml v1.3.3 + libmatroska v1.4.4
    Video
    Идентификатор : 1
    Формат : AVC
    Формат/Информация : Advanced Video Codec
    Профиль формата : High@L4
    Параметр CABAC формата : Yes
    Параметр ReFrames формата : 4 frames
    Идентификатор кодека : V_MPEG4/ISO/AVC
    Продолжительность : 42mn 37s
    Битрейт : 5 098 Kbps
    Ширина : 1 920 pixels
    Высота : 1 080 pixels
    Соотношение сторон : 16:9
    Режим частоты кадров : Constant
    Частота кадров : 23.976 (24000/1001) fps
    Цветовое пространство : YUV
    Субдискретизация насыщенности : 4:2:0
    Битовая глубина : 8 bits
    Тип развёртки : Progressive
    Бит/(Пиксели*Кадры) : 0.103
    Размер потока : 1.52 GiB (84%)
    Язык : English
    Default : Yes
    Forced : No
    Цветовой диапазон : Limited
    Основные цвета : BT.709
    Характеристики трансфера : BT.709
    Коэффициенты матрицы : BT.709
    Audio #1
    Идентификатор : 4
    Формат : AC-3
    Формат/Информация : Audio Coding 3
    Расширение режима : CM (complete main)
    Параметр Endianness формата : Big
    Идентификатор кодека : A_AC3
    Продолжительность : 42mn 37s
    Вид битрейта : Constant
    Битрейт : 384 Kbps
    Каналы : 6 channels
    Расположение каналов : Front: L C R, Side: L R, LFE
    Частота : 48.0 KHz
    Частота кадров : 31.250 fps (1536 spf)
    Метод сжатия : Lossy
    Размер потока : 117 MiB (6%)
    Заголовок : LostFilm
    Язык : Russian
    Default : Yes
    Forced : No
    Audio #2
    Идентификатор : 5
    Формат : AC-3
    Формат/Информация : Audio Coding 3
    Расширение режима : CM (complete main)
    Параметр Endianness формата : Big
    Идентификатор кодека : A_AC3
    Продолжительность : 42mn 37s
    Вид битрейта : Constant
    Битрейт : 192 Kbps
    Каналы : 2 channels
    Расположение каналов : Front: L R
    Частота : 48.0 KHz
    Частота кадров : 31.250 fps (1536 spf)
    Метод сжатия : Lossy
    Размер потока : 58.5 MiB (3%)
    Заголовок : Nevafilm
    Язык : Russian
    Default : No
    Forced : No
    Audio #3
    Идентификатор : 6
    Формат : AC-3
    Формат/Информация : Audio Coding 3
    Расширение режима : CM (complete main)
    Параметр Endianness формата : Big
    Идентификатор кодека : A_AC3
    Продолжительность : 42mn 37s
    Вид битрейта : Constant
    Битрейт : 384 Kbps
    Каналы : 6 channels
    Расположение каналов : Front: L C R, Side: L R, LFE
    Частота : 48.0 KHz
    Частота кадров : 31.250 fps (1536 spf)
    Метод сжатия : Lossy
    Размер потока : 117 MiB (6%)
    Язык : English
    Default : No
    Forced : No
    Text #1
    Идентификатор : 2
    Формат : UTF-8
    Идентификатор кодека : S_TEXT/UTF8
    Идентификатор кодека/Информация : UTF-8 Plain Text
    Продолжительность : 41mn 53s
    Битрейт : 124 bps
    Count of elements : 687
    Размер потока : 38.1 KiB (0%)
    Язык : Russian
    Default : No
    Forced : No
    Text #2
    Идентификатор : 3
    Формат : UTF-8
    Идентификатор кодека : S_TEXT/UTF8
    Идентификатор кодека/Информация : UTF-8 Plain Text
    Продолжительность : 41mn 52s
    Битрейт : 100 bps
    Count of elements : 752
    Размер потока : 30.9 KiB (0%)
    Язык : English
    Default : No
    Forced : No
    --

    MediaInfo 2 Сезон

    Общее
    Уникальный идентификатор : 176525485153182523059751560743455775833 (0x84CD92603345E96A8CEC53CD67BB5C59)
    Полное имя : E:\К ИНО\ФАНТАСТИКА\Агент Картер\Agent_Carter_2015-2016_S01-S02_2хRUS_ENG[LostFilm_NevaFilm]_N.B_WEB-DLRip_1080p\S02\Agent_Carter_S02E01_2хRUS_ENG[LostFilm_NevaFilm]_N.B_WEB-DLRip_1080p.mkv
    Формат : Matroska
    Версия формата : Version 4 / Version 2
    Размер файла : 1,81 Гбайт
    Продолжительность : 42 м.
    Общий поток : 6133 Кбит/сек
    Название фильма : Agent_Carter_S02E01_2хRUS_ENG[LostFilm]_N.B_WEB-DLRip_1080p
    Дата кодирования : UTC 2016-02-19 07:12:58
    Программа кодирования : mkvmerge v8.8.0 ('Wind at my back') 64bit
    Библиотека кодирования : libebml v1.3.3 + libmatroska v1.4.4
    Видео
    Идентификатор : 1
    Формат : AVC
    Формат/Информация : Advanced Video Codec
    Профиль формата : High@L4
    Параметр CABAC формата : Да
    Параметр ReFrames формата : 4 кадра
    Идентификатор кодека : V_MPEG4/ISO/AVC
    Продолжительность : 42 м.
    Битрейт : 5170 Кбит/сек
    Ширина : 1920 пикселей
    Высота : 1080 пикселей
    Соотношение сторон : 16:9
    Режим частоты кадров : Постоянный
    Частота кадров : 23,976 (24000/1001) кадра/сек
    Цветовое пространство : YUV
    Субдискретизация насыщенности : 4:2:0
    Битовая глубина : 8 бит
    Тип развёртки : Прогрессивная
    Бит/(Пиксели*Кадры) : 0.104
    Размер потока : 1,53 Гбайт (84%)
    Язык : English
    Default : Да
    Forced : Нет
    Цветовой диапазон : Limited
    Основные цвета : BT.709
    Характеристики трансфера : BT.709
    Коэффициенты матрицы : BT.709
    Аудио #1
    Идентификатор : 4
    Формат : AC-3
    Формат/Информация : Audio Coding 3
    Расширение режима : CM (complete main)
    Параметр Endianness формата : Big
    Идентификатор кодека : A_AC3
    Продолжительность : 42 м.
    Вид битрейта : Постоянный
    Битрейт : 384 Кбит/сек
    Каналы : 6 каналов
    Расположение каналов : Front: L C R, Side: L R, LFE
    Частота : 48,0 КГц
    Частота кадров : 31,250 кадров/сек (1536 spf)
    Метод сжатия : С потерями
    Размер потока : 116 Мбайт (6%)
    Default : Да
    Forced : Нет
    Аудио #2
    Идентификатор : 5
    Формат : AC-3
    Формат/Информация : Audio Coding 3
    Расширение режима : CM (complete main)
    Параметр Endianness формата : Big
    Идентификатор кодека : A_AC3
    Продолжительность : 42 м.
    Вид битрейта : Постоянный
    Битрейт : 384 Кбит/сек
    Каналы : 6 каналов
    Расположение каналов : Front: L C R, Side: L R, LFE
    Частота : 48,0 КГц
    Частота кадров : 31,250 кадров/сек (1536 spf)
    Метод сжатия : С потерями
    Размер потока : 116 Мбайт (6%)
    Default : Нет
    Forced : Нет
    Аудио #3
    Идентификатор : 6
    Формат : AC-3
    Формат/Информация : Audio Coding 3
    Расширение режима : CM (complete main)
    Параметр Endianness формата : Big
    Идентификатор кодека : A_AC3
    Продолжительность : 42 м.
    Вид битрейта : Постоянный
    Битрейт : 192 Кбит/сек
    Каналы : 2 канала
    Расположение каналов : Front: L R
    Частота : 48,0 КГц
    Частота кадров : 31,250 кадров/сек (1536 spf)
    Метод сжатия : С потерями
    Размер потока : 58,1 Мбайт (3%)
    Default : Нет
    Forced : Нет
    Текст #1
    Идентификатор : 2
    Формат : UTF-8
    Идентификатор кодека : S_TEXT/UTF8
    Идентификатор кодека/Информация : UTF-8 Plain Text
    Продолжительность : 41 м.
    Битрейт : 145 бит/сек
    Count of elements : 820
    Размер потока : 43,8 Кбайт (0%)
    Default : Да
    Forced : Нет
    Текст #2
    Идентификатор : 3
    Формат : UTF-8
    Идентификатор кодека : S_TEXT/UTF8
    Идентификатор кодека/Информация : UTF-8 Plain Text
    Продолжительность : 41 м.
    Битрейт : 136 бит/сек
    Count of elements : 983
    Размер потока : 41,4 Кбайт (0%)
    Язык : English
    Default : Нет
    Forced : Нет
    --

    Скриншоты

    -- 1 Сезон -- 2 Сезон --

    Как закачать отдельный файл

    1. Открыть торрент
    2. Снять галки с тех файлов торрента, которые мы не хотим закачивать. Оставляем только на нужных нам файлах (файле).
    3. Нажать О.К.
    В клиенте utorrent
    Инструкция
    1) Открыть торрент

    2) Снять галки с тех файлов торрента, которые мы не хотим закачивать:
    * либо вручную, снимая с каждого файла галку( скрин №1)
    * либо, нажав кнопку "Снять метки (Select None)", сняв сразу со всех файлов(скрин №2)
    №1

    №2

    Оставляем только на нужных нам файлах (файле).

    3)Нажать О.К
    ------Внимание!!! 06.03. 2016. РАЗДАЧА ОБНОВЛЕНА. Добавлена в 1-3 серии звуковая дорожка, Дубляж Nevafilm,Добавлена 6 Серия .ОБНОВИТЕ ТОРЕНТ ФАЙЛ.ПРИЯТНОГО ПРОСМОТРА . ФИНАЛ СЕЗОНА. --Релиз от: Nikolai.Baranov & PIRATIYA --------
    Скачать .torrent

    Скачать торрент-файл бесплатно и на максимальной скорости!

    Как скачивать? · Что такое торрент? · Рейтинг и ограничения

    !ВНИМАНИЕ!
    Сайт не распространяет и не хранит электронные версии произведений, а занимается лишь лишь предоставлением доступа к создаваемому пользователями каталогу ссылок на торрент-файлы, которые содержат только списки хеш-сумм, убедительная просьба с жалобами обращаться напрямую к пользователю. Файлы для обмена на трекере предоставлены пользователями сайта, и администрация не несёт ответственности за их содержание. Просьба не заливать файлы, защищенные авторскими правами, а также файлы нелегального содержания!


    _________________

    Легко быть оптимистом, когда судьба не валит с ног тяжелыми ударами, а лишь иногда легонько шлепает по заднице.
    [Профиль] [ЛС]

    -746

    Создавать темы 06-Мар-2016 13:38 (спустя 1 месяц 13 дней)

           

    Топик был перенесен из форума Зарубежные сериалы в форум Зарубежные сериалы (HD Video)


    -sasha2006

    _________________
    Как бы ты высоко не летал, не забывай, с кем ты ползал..
     
    Показать сообщения:    
    Ответить на тему

    Текущее время: Сегодня, в 16:31

    Часовой пояс: GMT + 2



    Вы не можете начинать темы
    Вы не можете отвечать на сообщения
    Вы не можете редактировать свои сообщения
    Вы не можете удалять свои сообщения
    Вы не можете голосовать в опросах
    Вы не можете прикреплять файлы к сообщениям
    Вы не можете скачивать файлы