BitTorrentTracker PerecTracker.org
BitTorrentTracker PerecTracker.org
    
Регистрация  ·  Вход
 
 · 
Забыли пароль?

  • [ATV3] Последний охотник на ведьм / The Last Witch Hunter (Брек Эйснер / Breck Eisner ) [2015, США, Китай, Канада, Фэнтези, боевик, приключения, BDRip, HD (1080p)] DUB + Original + sub (eng)

    Ответить на тему
     
    Автор Сообщение

    Flirldrerve

    Создавать темы 24-Янв-2016 05:39

           

    [Цитировать]

    Последний охотник на ведьм / The Last Witch Hunter
    «Вечно жить. Вечно убивать»
    6.130 / 10 6.00 / 10
    -Год выпуска: 2015
    Страна: США, Китай, Канада
    Жанр: Фэнтези, боевик, приключения
    Продолжительность: 01:46:34
    Перевод: Дублированный (iTunes)
    Оригинальная аудиодорожка: Есть
    Cубтитры: Английские, Английские SDH
    Режиссёр: Брек Эйснер
    Сценарий: Кори Гудман, Мэтт Сазама, Берк Шарплесс
    Продюсер: Марк Кантон, Вин Дизель, Берни Голдманн
    Оператор: Дин Семлер
    Композитор: Стив Яблонски
    Художник: Джули Бергхофф, Том Рита, Люка Моска
    Монтаж: Крис Лебензон, Дин Зиммерман
    В ролях: Вин Дизель, Роуз Лесли, Элайджа Вуд, Оулавюр Дарри Оулафссон, Рина Оуэн, Юли Энгельбрехт, Майкл Кейн, Джозеф Гилган, Исаак Де Банколе, Майкл Халсли
    Бюджет: $90 000 000
    Сборы в США: $27 367 660
    Сборы в мире: + $80 965 305 = $108 332 965
    Сборы в России: $9 516 417
    Мировая премьера: 13 октября 2015
    Премьера (РФ): 29 октября 2015, «Централ Партнершип»
    Описание: Современный мир скрывает множество секретов, но самым удивительным из них является то, что ведьмы до сих пор живут среди нас. Это злобные сверхъестественные существа, чья цель — наслать на мир смертоносную чуму. Армии охотников на ведьм сражались с ними на протяжении многих веков.-Качество исходника: BDRemux (HDClub)
    Качество: BDRip
    Тип: HD (1080p)
    Контейнер: M4V
    Видео: H.264, 1920x800, 2.40:1, 8 000 Kbps, 23.976 (24000/1001) fps
    Аудио 1: Русский/Дублированный (iTunes), AAC / 2.0 / 157 Kbps / 48.0 KHz
    Аудио 2: Английский/Оригинальная дорожка , AAC / 2.0 / 157 Kbps / 48.0 KHz
    Аудио 3: Русский/Дублированный (iTunes), AC-3 / 5.1 / 384 Kbps / 48.0 KHz
    Аудио 4: Английский/Оригинальная дорожка , AC-3 / 5.1 / 640 Kbps / 48.0 KHz
    Субтитры 1: Английские полные
    Субтитры 2: Английские SDH
    -

    iTunes Meta Tags

    Sort Name: Last Witch Hunter
    XID: Apple:vendor_id:2015-506066
    contentID: 1049960925
    Screenwriters: Кори Гудман, Мэтт Сазама, Берк Шарплесс
    Producers: Марк Кантон, Вин Дизель, Берни Голдманн
    Director: Брек Эйснер
    Cast: Вин Дизель, Роуз Лесли, Элайджа Вуд, Оулавюр Дарри Оулафссон, Рина Оуэн, Юли Энгельбрехт, Майкл Кейн, Джозеф Гилган, Исаак Де Банколе, Майкл Халсли
    Studio: Summit Entertainment
    Rating Annotation: Rated PG-13 for sequences of fantasy violence and frightening images.
    Rating: 4
    Long Description: Современный мир скрывает множество секретов, но самым удивительным из них является то, что ведьмы до сих пор живут среди нас. Это злобные сверхъестественные существа, чья цель - наслать на мир смертоносную чуму. Армии охотников на ведьм сражались с ними на протяжении многих веков.
    В наши дни остался всего лишь один охотник на ведьм, Колдер, которому однажды удалось убить всемогущую королеву ведьм. Но Колдер еще не знает, что королева воскресла и жаждет отомстить своему убийце...
    Description: Современный мир скрывает множество секретов, но самым удивительным из них является то, что ведьмы до сих пор живут среди нас. Это злобные сверхъестественные существа, чья цель - наслать на мир смертоносную чуму. Армии охотников на ведьм сражались с ними на протяжении многих веков...
    Release Date: 2015-10-13T08:00:00Z
    Genre: Action & Adventure
    Artist: Breck Eisner
    Name: The Last Witch Hunter

    MediaInfo

    General
    Complete name : /Users/imac/Download-BIGBOY/The Last Witch Hunter (1080p HD).m4v
    Format : MPEG-4
    Codec ID : M4V  (M4V /M4A /mp42/isom)
    File size : 6.95 GiB
    Duration : 1h 46mn
    Overall bit rate mode : Variable
    Overall bit rate : 9 338 Kbps
    Movie name : The Last Witch Hunter
    Performer : Breck Eisner
    Director : Брек Эйснер
    Actor : Вин Дизель / Роуз Лесли / Элайджа Вуд / Оулавюр Дарри Оулафссон / Рина Оуэн / Юли Энгельбрехт / Майкл Кейн / Джозеф Гилган / Исаак Де Банколе / Майкл Халсли
    Screenplay by : Кори Гудман / Мэтт Сазама / Берк Шарплесс
    Producer : Марк Кантон / Вин Дизель / Берни Голдманн
    Production studio : Summit Entertainment
    Genre : Action & Adventure
    ContentType : Short Film
    Description : Современный мир скрывает множество секретов, но самым удивительным из них является то, что ведьмы до сих пор живут среди нас. Это злобные сверхъестественные существа, чья цель - наслать на мир смертоносную чуму. Армии охотников на ведьм сражались с ними на протяжении многих веков...
    Recorded date : UTC 2015-10-13 08:00:00
    Encoded date : UTC 2016-01-23 21:02:40
    Tagged date : UTC 2016-01-23 21:04:33
    Cover : Yes
    Rating : None
    Title/Sort : Last Witch Hunter
    LongDescription : Современный мир скрывает множество секретов, но самым удивительным из них является то, что ведьмы до сих пор живут среди нас. Это злобные сверхъестественные существа, чья цель - наслать на мир смертоносную чуму. Армии охотников на ведьм сражались с ними на протяжении многих веков. / В наши дни остался всего лишь один охотник на ведьм, Колдер, которому однажды удалось убить всемогущую королеву ведьм. Но Колдер еще не знает, что королева воскресла и жаждет отомстить своему убийце...
    AppleStoreCatalogID : 1049960925
    Vendor : Apple:vendor_id:2015-506066
    ContentRating : mpaa|PG-13|300|Rated PG-13 for sequences of fantasy violence and frightening images.
    Video #1
    ID : 1
    Format : AVC
    Format/Info : Advanced Video Codec
    Format profile : High@L4
    Format settings, CABAC : Yes
    Format settings, ReFrames : 4 frames
    Codec ID : avc1
    Codec ID/Info : Advanced Video Coding
    Duration : 1h 46mn
    Source duration : 1h 46mn
    Bit rate : 8 000 Kbps
    Width : 1 920 pixels
    Height : 800 pixels
    Display aspect ratio : 2.40:1
    Frame rate mode : Variable
    Frame rate : 23.976 (24000/1001) fps
    Minimum frame rate : 23.974 fps
    Maximum frame rate : 23.981 fps
    Color space : YUV
    Chroma subsampling : 4:2:0
    Bit depth : 8 bits
    Scan type : Progressive
    Bits/(Pixel*Frame) : 0.217
    Stream size : 5.95 GiB (86%)
    Source stream size : 5.95 GiB (86%)
    Title : Main Program
    Writing library : x264 core 142 r2479 dd79a61
    Encoding settings : cabac=1 / ref=4 / deblock=1:-2:-2 / analyse=0x3:0x133 / me=umh / subme=10 / psy=1 / psy_rd=1.00:0.15 / mixed_ref=1 / me_range=32 / chroma_me=1 / trellis=2 / 8x8dct=1 / cqm=0 / deadzone=21,11 / fast_pskip=0 / chroma_qp_offset=-3 / threads=36 / lookahead_threads=6 / sliced_threads=0 / nr=0 / decimate=0 / interlaced=0 / bluray_compat=0 / constrained_intra=0 / bframes=16 / b_pyramid=2 / b_adapt=2 / b_bias=0 / direct=3 / weightb=1 / open_gop=0 / weightp=2 / keyint=240 / keyint_min=24 / scenecut=40 / intra_refresh=0 / rc_lookahead=60 / rc=2pass / mbtree=1 / bitrate=8000 / ratetol=1.0 / qcomp=0.70 / qpmin=0 / qpmax=69 / qpstep=4 / cplxblur=20.0 / qblur=0.5 / vbv_maxrate=25000 / vbv_bufsize=25000 / nal_hrd=none / filler=0 / ip_ratio=1.40 / aq=1:1.00
    Language : English
    Encoded date : UTC 2016-01-23 21:02:40
    Tagged date : UTC 2016-01-23 21:02:49
    Color range : Limited
    Color primaries : BT.709
    Transfer characteristics : BT.709
    Matrix coefficients : BT.709
    Menus : 8,9
    Video #2
    ID : 9
    Format : JPEG
    Codec ID : jpeg
    Duration : 1h 46mn
    Bit rate mode : Variable
    Bit rate : 1 026 bps
    Width : 640 pixels
    Height : 266 pixels
    Display aspect ratio : 2.40:1
    Frame rate mode : Variable
    Frame rate : 0.003 fps
    Minimum frame rate : 0.002 fps
    Maximum frame rate : 0.004 fps
    Color space : YUV
    Chroma subsampling : 4:2:0
    Bit depth : 8 bits
    Compression mode : Lossy
    Bits/(Pixel*Frame) : 2.009
    Stream size : 668 KiB (0%)
    Title : Chapter Images
    Language : English
    Default : No
    Encoded date : UTC 2016-01-23 21:02:58
    Tagged date : UTC 2016-01-23 21:02:59
    Menu For : 1
    Audio #1
    ID : 2
    Format : AAC
    Format/Info : Advanced Audio Codec
    Format profile : LC
    Codec ID : 40
    Duration : 1h 46mn
    Bit rate mode : Variable
    Bit rate : 157 Kbps
    Maximum bit rate : 236 Kbps
    Channel(s) : 2 channels
    Channel positions : Front: L R
    Sampling rate : 48.0 KHz
    Frame rate : 46.875 fps (1024 spf)
    Compression mode : Lossy
    Stream size : 120 MiB (2%)
    Title : Russian Stereo
    Language : Russian
    Default : Yes
    Alternate group : 1
    Encoded date : UTC 2016-01-23 21:02:40
    Tagged date : UTC 2016-01-23 21:02:51
    Fallback From : 4
    Menus : 8
    Audio #2
    ID : 3
    Format : AAC
    Format/Info : Advanced Audio Codec
    Format profile : LC
    Codec ID : 40
    Duration : 1h 46mn
    Bit rate mode : Variable
    Bit rate : 157 Kbps
    Maximum bit rate : 242 Kbps
    Channel(s) : 2 channels
    Channel positions : Front: L R
    Sampling rate : 48.0 KHz
    Frame rate : 46.875 fps (1024 spf)
    Compression mode : Lossy
    Stream size : 120 MiB (2%)
    Title : English Stereo
    Language : English
    Default : No
    Alternate group : 1
    Encoded date : UTC 2016-01-23 21:02:40
    Tagged date : UTC 2016-01-23 21:02:51
    Fallback From : 5
    Audio #3
    ID : 4
    Format : AC-3
    Format/Info : Audio Coding 3
    Mode extension : CM (complete main)
    Format settings, Endianness : Big
    Codec ID : ac-3
    Duration : 1h 46mn
    Bit rate mode : Constant
    Bit rate : 384 Kbps
    Channel(s) : 6 channels
    Channel positions : Front: L C R, Side: L R, LFE
    Sampling rate : 48.0 KHz
    Frame rate : 31.250 fps (1536 spf)
    Bit depth : 16 bits
    Compression mode : Lossy
    Stream size : 293 MiB (4%)
    Title : Russian DD 5.1
    Language : Russian
    Default : Inherited From: 2
    Alternate group : 1
    Encoded date : UTC 2016-01-23 21:02:40
    Tagged date : UTC 2016-01-23 21:02:50
    Fallback To : 2
    Audio #4
    ID : 5
    Format : AC-3
    Format/Info : Audio Coding 3
    Mode extension : CM (complete main)
    Format settings, Endianness : Big
    Codec ID : ac-3
    Duration : 1h 46mn
    Bit rate mode : Constant
    Bit rate : 640 Kbps
    Channel(s) : 6 channels
    Channel positions : Front: L C R, Side: L R, LFE
    Sampling rate : 48.0 KHz
    Frame rate : 31.250 fps (1536 spf)
    Bit depth : 16 bits
    Compression mode : Lossy
    Stream size : 488 MiB (7%)
    Title : English DD 5.1
    Language : English
    Default : No
    Alternate group : 1
    Encoded date : UTC 2016-01-23 21:02:40
    Tagged date : UTC 2016-01-23 21:02:50
    Fallback To : 3
    Text #1
    ID : 6
    Format : Timed Text
    Muxing mode : sbtl
    Codec ID : tx3g
    Duration : 1h 37mn
    Bit rate mode : Variable
    Bit rate : 46 bps
    Stream size : 32.4 KiB (0%)
    Title : English full
    Language : English
    Default : Yes
    Forced : No
    Alternate group : 2
    Encoded date : UTC 2016-01-23 21:02:40
    Tagged date : UTC 2016-01-23 21:02:40
    Text #2
    ID : 7
    Format : Timed Text
    Muxing mode : sbtl
    Codec ID : tx3g
    Duration : 1h 37mn
    Bit rate mode : Variable
    Bit rate : 51 bps
    Stream size : 36.5 KiB (0%)
    Title : English SDH
    Language : English
    Default : No
    Forced : No
    Alternate group : 2
    Encoded date : UTC 2016-01-23 21:02:40
    Tagged date : UTC 2016-01-23 21:02:40
    Menu #1
    00:00:00.000 : Chapter 1
    00:08:02.732 : Chapter 2
    00:16:26.319 : Chapter 3
    00:25:18.100 : Chapter 4
    00:31:00.692 : Chapter 5
    00:36:48.331 : Chapter 6
    00:43:09.003 : Chapter 7
    00:47:09.577 : Chapter 8
    00:54:09.413 : Chapter 9
    01:00:33.046 : Chapter 10
    01:08:02.287 : Chapter 11
    01:14:44.188 : Chapter 12
    01:21:04.151 : Chapter 13
    01:29:15.058 : Chapter 14
    01:32:57.405 : Chapter 15
    01:37:28.426 : Chapter 16
    Menu #2
    ID : 8
    Codec ID : text
    Duration : 1h 46mn
    Language : English
    Encoded date : UTC 2016-01-23 21:02:51
    Tagged date : UTC 2016-01-23 21:02:51
    Menu For : 2,1
    00:00:00.000 : Chapter 1
    00:08:02.732 : Chapter 2
    00:16:26.319 : Chapter 3
    00:25:18.100 : Chapter 4
    00:31:00.692 : Chapter 5
    00:36:48.331 : Chapter 6
    00:43:09.003 : Chapter 7
    00:47:09.577 : Chapter 8
    00:54:09.413 : Chapter 9
    01:00:33.046 : Chapter 10
    01:08:02.287 : Chapter 11
    01:14:44.188 : Chapter 12
    01:21:04.151 : Chapter 13
    01:29:15.058 : Chapter 14
    01:32:57.405 : Chapter 15
    01:37:28.426 : Chapter 16
    Bit rate mode : VBR

    x264 лог

    x264 [info]: frame I:985   Avg QP:16.49  size:175891
    x264 [info]: frame P:38782 Avg QP:19.83  size: 65486
    x264 [info]: frame B:113545 Avg QP:20.72  size: 32348
    x264 [info]: consecutive B-frames:  4.2%  8.6% 10.0% 12.8% 15.4% 41.5%  4.4%  0.6%  0.7%  0.5%  0.3%  0.4%  0.1%  0.1%  0.1%  0.1%  0.2%
    x264 [info]: mb I  I16..4: 16.1% 69.7% 14.2%
    x264 [info]: mb P  I16..4:  3.9% 22.0%  1.3%  P16..4: 39.8% 13.1%  8.6%  0.2%  0.1%    skip:11.0%
    x264 [info]: mb B  I16..4:  0.3%  3.8%  0.2%  B16..8: 39.2%  8.9%  2.0%  direct:10.2%  skip:35.4%  L0:43.9% L1:45.1% BI:10.9%
    x264 [info]: 8x8 transform intra:82.4% inter:59.0%
    x264 [info]: direct mvs  spatial:98.8% temporal:1.2%
    x264 [info]: coded y,uvDC,uvAC intra: 84.2% 86.8% 67.1% inter: 32.5% 36.2% 13.4%
    x264 [info]: i16 v,h,dc,p: 48% 14% 13% 25%
    x264 [info]: i8 v,h,dc,ddl,ddr,vr,hd,vl,hu:  9%  6% 13% 10% 13% 12% 12% 12% 13%
    x264 [info]: i4 v,h,dc,ddl,ddr,vr,hd,vl,hu:  9%  8%  5%  9% 15% 14% 14% 12% 14%
    x264 [info]: i8c dc,h,v,p: 51% 18% 17% 14%
    x264 [info]: Weighted P-Frames: Y:5.3% UV:3.5%
    x264 [info]: ref P L0: 47.3%  9.6% 27.6% 13.3%  2.1%  0.1%
    x264 [info]: ref B L0: 82.6% 14.1%  3.3%
    x264 [info]: ref B L1: 90.7%  9.3%
    x264 [info]: kb/s:7989.39

    Скриншоты

    -

    Релиз подготовлен для просмотра на Apple TV, iPad, iPhone, iPod Touch.
    Для просмотра данного релиза на компьютере с ОС Windows рекомендуется использовать VLC media player
    Скачать .torrent

    Скачать торрент-файл бесплатно и на максимальной скорости!

    Как скачивать? · Что такое торрент? · Рейтинг и ограничения

    !ВНИМАНИЕ!
    Сайт не распространяет и не хранит электронные версии произведений, а занимается лишь лишь предоставлением доступа к создаваемому пользователями каталогу ссылок на торрент-файлы, которые содержат только списки хеш-сумм, убедительная просьба с жалобами обращаться напрямую к пользователю. Файлы для обмена на трекере предоставлены пользователями сайта, и администрация не несёт ответственности за их содержание. Просьба не заливать файлы, защищенные авторскими правами, а также файлы нелегального содержания!


    _________________
    [Профиль] [ЛС]
    Показать сообщения:    
    Ответить на тему

    Текущее время: Сегодня, в 10:55

    Часовой пояс: GMT + 2



    Вы не можете начинать темы
    Вы не можете отвечать на сообщения
    Вы не можете редактировать свои сообщения
    Вы не можете удалять свои сообщения
    Вы не можете голосовать в опросах
    Вы не можете прикреплять файлы к сообщениям
    Вы не можете скачивать файлы