BitTorrentTracker PerecTracker.org
BitTorrentTracker PerecTracker.org
    
Регистрация  ·  Вход
 
 · 
Забыли пароль?

  • Хроники ломбарда / Pawn Shop Chronicles (Уэйн Крамер / Wayne Kramer) [2013, США, криминал, комедия, боевик, HDRip] VO (Артём Белоконский)

    Ответить на тему
     
    Автор Сообщение

    Columb

    Создавать темы 22-Дек-2013 18:02

           

    [Цитировать]

    Хроники ломбарда / Pawn Shop Chronicles-Страна: США
    Жанр: криминал, комедия, боевик
    Год выпуска: 2013
    Продолжительность: 01:52:25
    Перевод: Одноголосый закадровый Артём Белоконский
    Cубтитры: нет-Режиссер: Уэйн Крамер / Wayne Kramer
    В ролях: Брендан Фрейзер, Элайджа Вуд, Винсент Д’Онофрио, Томас Джейн, Норман Ридус, Мэтт Диллон, Пол Уокер, Кевин О. Ранкин, Чи МакБрайд.
    Описание: Три разные истории объединяет ломбард в захолустном городишке. Именно там пересекаются персонажи, казалось бы, разных сюжетных линий.
    Первая история — криминальная комедия о наркоманах-неудачниках, пытающихся ограбить своего дилера.
    Вторая — триллер, где неожиданная находка в ломбарде кольца пропавшей много лет назад жены приводит мужчину к маньяку, удерживающему в плену 21 девушку.
    Третья история — комедия о жизни двойника Элвиса, кочующего со своим шоу по ярмаркам американской провинции.-Автор рипа: Scarabey
    Качество видео: HDRip
    Формат видео: AVI | Sample
    Видео: 624x352 (1.77:1), 23.976 fps, XviD build 73 ~791 kbps avg, 0.15 bit/pixel
    Аудио: 48 kHz, MPEG Layer 3, 2 ch, ~128.00 kbps avg

    MediaInfo

    Format : AVI
    Format/Info : Audio Video Interleave
    File size : 747 MiB
    Duration : 1h 52mn
    Overall bit rate : 929 Kbps
    Writing application : VirtualDubMod 1.5.10.3 | (build 2550/release)
    Writing library : VirtualDubMod build 2550/release
    Video
    ID : 0
    Format : MPEG-4 Visual
    Format profile : Advanced Simple@L5
    Format settings, BVOP : Yes
    Format settings, QPel : No
    Format settings, GMC : No warppoints
    Format settings, Matrix : Custom
    Codec ID : XVID
    Codec ID/Hint : XviD
    Duration : 1h 52mn
    Bit rate : 791 Kbps
    Width : 624 pixels
    Height : 352 pixels
    Display aspect ratio : 16:9
    Frame rate : 23.976 fps
    Color space : YUV
    Chroma subsampling : 4:2:0
    Bit depth : 8 bits
    Scan type : Progressive
    Bits/(Pixel*Frame) : 0.150
    Stream size : 636 MiB (85%)
    Writing library : XviD 73
    Audio
    ID : 1
    Format : MPEG Audio
    Format version : Version 1
    Format profile : Layer 3
    Codec ID : 55
    Codec ID/Hint : MP3
    Duration : 1h 52mn
    Bit rate mode : Constant
    Bit rate : 128 Kbps
    Channel(s) : 2 channels
    Sampling rate : 48.0 KHz
    Stream size : 103 MiB (14%)
    Alignment : Aligned on interleaves
    Interleave, duration : 42 ms (1.00 video frame)
    Interleave, preload duration : 504 ms
    Writing library : LAME3.99r
    Encoding settings : -m s -V 4 -q 2 -lowpass 17 -b 128

    Скриншоты

    Скачать .torrent

    Скачать торрент-файл бесплатно и на максимальной скорости!

    Как скачивать? · Что такое торрент? · Рейтинг и ограничения

    !ВНИМАНИЕ!
    Сайт не распространяет и не хранит электронные версии произведений, а занимается лишь лишь предоставлением доступа к создаваемому пользователями каталогу ссылок на торрент-файлы, которые содержат только списки хеш-сумм, убедительная просьба с жалобами обращаться напрямую к пользователю. Файлы для обмена на трекере предоставлены пользователями сайта, и администрация не несёт ответственности за их содержание. Просьба не заливать файлы, защищенные авторскими правами, а также файлы нелегального содержания!

    [Профиль] [ЛС]

    -746

    Создавать темы 19-Апр-2014 00:00 (спустя 3 месяца 27 дней)

           

    Топик был перенесен из форума Зарубежные Фильмы (Новинки) в форум Фильмы 2011-2013

    -sasha2006 

    _________________
    Как бы ты высоко не летал, не забывай, с кем ты ползал..
     
    Показать сообщения:    
    Ответить на тему

    Текущее время: Сегодня, в 17:40

    Часовой пояс: GMT + 2



    Вы не можете начинать темы
    Вы не можете отвечать на сообщения
    Вы не можете редактировать свои сообщения
    Вы не можете удалять свои сообщения
    Вы не можете голосовать в опросах
    Вы не можете прикреплять файлы к сообщениям
    Вы не можете скачивать файлы