Register  ·  Log in
Forgot password?

  • Звездный патруль: Легенда об Орине / Starchaser: The Legend of Orin (Стивен Хан / Steven Hahn) [1985, мультфильм, фантастика, приключения, DVDRip] AVO

    Reply to topic
    Author Message


    Post 23-Jan-2016 22:15



    Звездный патруль: Легенда об Орине / Starchaser: The Legend of Orin
    Страна: Корея Южная, США
    Жанр: мультфильм, фантастика, приключения
    Продолжительность: 01:40:15
    Год выпуска: 1985
    Перевод: Авторский (одноголосый, закадровый) (Алексеев)
    Cубтитры: отсутствуют-Слоган «He alone has the power»-Режиссёр: Стивен Хан / Steven Hahn
    Роли озвучивали: Джо Колиган, Кармен Ардженциано, Ноэль Норт, Энтони Де Лонгис, Tyke Caravelli, Лес Тремейн, Кен Сэнсом, Джон Мошитта мл., Дэрил Бартли, Джон Гарвуд-Описание:
    Глубоко под землей в Мире Шахты живут люди, никогда не видевшие солнечного света и не верящие в его существование. Под управлением надсмотрщиков-роботов жестокого повелителя Зайгона они, каждый день рискуя своей жизнью, добывают для него рубидимитовые кристаллы, получая взамен жалкие подачки еды. И только один из них, Орин, случайно обнаружив волшебную рукоятку от меча, решает бросить вызов Зайгону, найти дорогу во внешний мир и освободить своих соплеменников.
    Качество: DVDRip
    Формат: AVI
    Видео: 640x272 (2.35:1), 23.976 fps, XviD build 73 ~904 kbps avg, 0.22 bit/pixel
    Аудио: 48 kHz, MPEG Layer 3, 2 ch, ~128.00 kbps avg-Исходник: DVD5
    Автор рипа: domin8

    Подробные технические данные

    GeneralComplete name : C:\Users\X666\Desktop\Starchaser The Legend of Orin\Starchaser_The_Legend_of_Orin_DVDRip.aviFormat : AVIFormat/Info : Audio Video InterleaveFile size : 746 MiBDuration : 1h 40mnOverall bit rate : 1 041 KbpsMovie name : Starchaser: The Legend of Orin [ripped by domin8]Genre : Child'sWriting application : VirtualDubMod | || (build 2550/release)Original source form/Name : CartoonVideo #0ID : 0Format : MPEG-4 VisualFormat profile : Advanced Simple@L5Format settings, BVOP : YesFormat settings, QPel : NoFormat settings, GMC : No warppointsFormat settings, Matrix : Default (H.263)Codec ID : XVIDCodec ID/Hint : XviDDuration : 1h 40mnBit rate : 904 KbpsWidth : 640 pixelsHeight : 272 pixelsDisplay aspect ratio : 2.35:1Frame rate : 23.976 fpsColor space : YUVChroma subsampling : 4:2:0Bit depth : 8 bitsScan type : ProgressiveBits/(Pixel*Frame) : 0.217Stream size : 648 MiB (87%)Writing library : XviD 73Audio #1ID : 1Format : MPEG AudioFormat version : Version 1Format profile : Layer 3Mode : Joint stereoMode extension : MS StereoCodec ID : 55Codec ID/Hint : MP3Duration : 1h 40mnBit rate mode : ConstantBit rate : 128 KbpsChannel(s) : 2 channelsSampling rate : 48.0 KHzStream size : 91.6 MiB (12%)Alignment : Aligned on interleavesInterleave, duration : 42 ms (1.00 video frame)Interleave, preload duration : 504 msWriting library : LAME3.99rEncoding settings : -m j -V 4 -q 0 -lowpass 17 -b 128


    Download .torrent

    Download free and at maximum speed!

    How to Download? · What is a torrent? · Ratings and Limitations

    The site does not extend and does not store electronic(digital) versions of products, and only gives access to a reference catalogue created by users on torrent-files which contain only lists of the hash-sums, the earnest entreaty, with complaints(abuse) to access directly to the user. Files for an exchange on tracker are given by users of a site, and the administration does not bear the responsibility for their maintenance. The request to not fill in the files protected by copyrights, and also files of the illegal maintenance!

    [Profile] [PM]
    Display posts from previous:    
    Reply to topic

    The time now is: Today 04:49

    All times are GMT + 3 Hours

    You cannot post new topics in this forum
    You cannot reply to topics in this forum
    You cannot edit your posts in this forum
    You cannot delete your posts in this forum
    You cannot vote in polls in this forum
    You cannot attach files in this forum
    You cannot download files in this forum