BitTorrentTracker PerecTracker.org
BitTorrentTracker PerecTracker.org
    
Регистрация  ·  Вход
 
 · 
Забыли пароль?

  • Последний охотник на ведьм / The Last Witch Hunter (Брек Эйснер / Breck Eisner) [2015, США, Китай, Канада, фэнтези, боевик, приключения, BDRip-AVC] Dub + Sub Eng + Original Eng

    Ответить на тему
     
    Автор Сообщение

    rechyn

    Создавать темы 23-Янв-2016 21:15

           

    [Цитировать]

    Последний охотник на ведьмThe Last Witch Hunter«Вечно жить. Вечно убивать»

    Страна: США, Китай, Канада
    Жанр: фэнтези, боевик, приключения
    Год выпуска: 2015
    Продолжительность: 01:46:34
    Перевод: Профессиональный (дублированный) iTunes
    Cубтитры: английские
    Оригинальная аудиодорожка: английский
    Режиссер: Брек Эйснер / Breck Eisner
    В ролях: Вин Дизель, Роуз Лесли, Элайджа Вуд, Оулавюр Дарри Оулафссон, Рина Оуэн, Юли Энгельбрехт, Майкл Кейн, Джозеф Гилган, Исаак Де Банколе, Майкл Халсли
    Описание: Современный мир скрывает множество секретов, но самым удивительным из них является то, что ведьмы до сих пор живут среди нас. Это злобные сверхъестественные существа, чья цель - наслать на мир смертоносную чуму. Армии охотников на ведьм сражались с ними на протяжении многих веков.
    В наши дни остался всего лишь один охотник на ведьм, Колдер, которому однажды удалось убить всемогущую королеву ведьм. Но Колдер еще не знает, что королева воскресла и жаждет отомстить своему убийце...
    Доп. информация:
    Релиз группы:
    Качество видео: BDRip-AVC | Последний охотник на ведьм / The Last Witch Hunter (2015) 1080p BD-Remux| HD club
    Формат видео: MKV
    Видео: 1152x480 (2:40:1), 23,976 fps, 4436 Кbps, 0.335 bit/pixe
    Аудио: 48 kHz, AC3 Dolby Digital, 3/2 (L,C,R,l,r) + LFE ch, ~384.00 kbps avg DUB
    Аудио 2: 48 kHz, AC3 Dolby Digital, 3/2 (L,C,R,l,r) + LFE ch, ~448.00 kbps avg ENG
    Формат субтитров: softsub (SRT)
    Доп. информация о субтитрах: отключаемые

    Знаете ли Вы что

    • Саундтреком к фильму является кавер на песню группы The Rolling Stones - Paint it Black в исполнении певицы Сиары.
    • Сценарий этого фильма был в «Черном списке» лучших неспродюсированных сценариев 2010 года.
    • Сцена показа мод была снята в Музее естественной истории Карнеги.
    • Первоначально планировалось, что режиссером проекта станет Тимур Бекмамбетов.

    MediaInfo

    General
    Unique ID : 172212145189806232978211827136670548222 (0x818EDA4BE966DBB2AF60EB263E1140FE)
    Complete name : D:\Мои рипы\Последний охотник на ведьм\The Last Witch Hunter by_IVAN@190282.mkv
    Format : Matroska
    Format version : Version 4 / Version 2
    File size : 4.00 GiB
    Duration : 1h 46mn
    Overall bit rate : 5 375 Kbps
    Movie name : The Last Witch Hunter by_IVAN@190282
    Encoded date : UTC 2016-01-23 12:48:42
    Writing application : mkvmerge v8.8.0 ('Wind at my back') 64bit
    Writing library : libebml v1.3.3 + libmatroska v1.4.4
    Attachements : cover.jpg
    DURATION : 01:35:43.160000000
    NUMBER_OF_FRAMES : 897
    NUMBER_OF_BYTES : 28497
    _STATISTICS_WRITING_APP : mkvmerge v8.8.0 ('Wind at my back') 64bit
    _STATISTICS_WRITING_DATE_UT : 2016-01-23 12:48:42
    _STATISTICS_TAGS : BPS DURATION NUMBER_OF_FRAMES NUMBER_OF_BYTES
    Video
    ID : 1
    Format : AVC
    Format/Info : Advanced Video Codec
    Format profile : High@L4.1
    Format settings, CABAC : Yes
    Format settings, ReFrames : 11 frames
    Codec ID : V_MPEG4/ISO/AVC
    Duration : 1h 46mn
    Bit rate : 4 436 Kbps
    Width : 1 152 pixels
    Height : 480 pixels
    Display aspect ratio : 2.40:1
    Frame rate mode : Constant
    Frame rate : 23.976 fps
    Color space : YUV
    Chroma subsampling : 4:2:0
    Bit depth : 8 bits
    Scan type : Progressive
    Bits/(Pixel*Frame) : 0.335
    Stream size : 3.30 GiB (83%)
    Title : The Last Witch Hunter by_IVAN@190282
    Writing library : x264 core 148 r2638kMod 7599210
    Encoding settings : cabac=1 / ref=11 / deblock=1:-3:-2 / analyse=0x3:0x133 / me=umh / subme=11 / psy=1 / fade_compensate=0.00 / psy_rd=1.00:0.05 / mixed_ref=1 / me_range=48 / chroma_me=1 / trellis=2 / 8x8dct=1 / cqm=0 / deadzone=21,11 / fast_pskip=0 / chroma_qp_offset=-3 / threads=6 / lookahead_threads=6 / sliced_threads=0 / nr=0 / decimate=1 / interlaced=0 / bluray_compat=0 / constrained_intra=0 / fgo=0 / bframes=16 / b_pyramid=2 / b_adapt=2 / b_bias=0 / direct=3 / weightb=1 / open_gop=0 / weightp=2 / keyint=240 / keyint_min=23 / scenecut=40 / intra_refresh=0 / rc_lookahead=60 / rc=crf / mbtree=0 / crf=17.1000 / qcomp=0.60 / qpmin=0 / qpmax=69 / qpstep=4 / vbv_maxrate=50000 / vbv_bufsize=62500 / crf_max=0.0 / nal_hrd=none / filler=0 / ip_ratio=1.40 / pb_ratio=1.30 / aq=2:1.10
    Language : English
    Default : Yes
    Forced : No
    Color range : Limited
    Color primaries : BT.709
    Transfer characteristics : BT.709
    Matrix coefficients : BT.709
    DURATION : 01:46:34.347000000
    NUMBER_OF_FRAMES : 153311
    NUMBER_OF_BYTES : 3629345588
    _STATISTICS_WRITING_APP : mkvmerge v8.8.0 ('Wind at my back') 64bit
    _STATISTICS_WRITING_DATE_UT : 2016-01-23 12:48:42
    _STATISTICS_TAGS : BPS DURATION NUMBER_OF_FRAMES NUMBER_OF_BYTES
    Audio #1
    ID : 2
    Format : AC-3
    Format/Info : Audio Coding 3
    Mode extension : CM (complete main)
    Format settings, Endianness : Big
    Codec ID : A_AC3
    Duration : 1h 46mn
    Bit rate mode : Constant
    Bit rate : 384 Kbps
    Channel(s) : 6 channels
    Channel positions : Front: L C R, Side: L R, LFE
    Sampling rate : 48.0 KHz
    Compression mode : Lossy
    Stream size : 293 MiB (7%)
    Title : Dub
    Default : Yes
    Forced : No
    Audio #2
    ID : 3
    Format : AC-3
    Format/Info : Audio Coding 3
    Mode extension : CM (complete main)
    Format settings, Endianness : Big
    Codec ID : A_AC3
    Duration : 1h 46mn
    Bit rate mode : Constant
    Bit rate : 448 Kbps
    Channel(s) : 6 channels
    Channel positions : Front: L C R, Side: L R, LFE
    Sampling rate : 48.0 KHz
    Compression mode : Lossy
    Stream size : 341 MiB (8%)
    Title : Eng
    Language : English
    Default : No
    Forced : No
    Text
    ID : 4
    Format : UTF-8
    Codec ID : S_TEXT/UTF8
    Codec ID/Info : UTF-8 Plain Text
    Title : Eng
    Language : English
    Default : No
    Forced : No
    Menu
    00:00:00.000 : en:Chapter 1
    00:07:33.411 : en:Chapter 2
    00:12:00.302 : en:Chapter 3
    00:12:59.445 : en:Chapter 4
    00:15:55.370 : en:Chapter 5
    00:20:56.922 : en:Chapter 6
    00:23:15.434 : en:Chapter 7
    00:25:52.675 : en:Chapter 8
    00:29:59.255 : en:Chapter 9
    00:38:14.041 : en:Chapter 10
    00:46:43.842 : en:Chapter 11
    00:49:46.315 : en:Chapter 12
    00:53:19.528 : en:Chapter 13
    00:55:10.222 : en:Chapter 14
    00:58:07.858 : en:Chapter 15
    01:08:42.326 : en:Chapter 16
    01:12:22.337 : en:Chapter 17
    01:15:45.707 : en:Chapter 18
    01:19:10.162 : en:Chapter 19
    01:22:46.836 : en:Chapter 20
    01:25:09.686 : en:Chapter 21
    01:28:07.738 : en:Chapter 22
    01:31:15.552 : en:Chapter 23
    01:36:02.756 : en:Chapter 24
    01:37:35.890 : en:Chapter 25
    01:40:35.404 : en:Chapter 26

    x264 log

    VIDEO ENCODING
    x264 [info]: frame I:1106 Avg QP:14.85 size: 99095 PSNR Mean Y:48.25 U:50.95 V:50.77 Avg:48.95 Global:47.91
    x264 [info]: frame P:37134 Avg QP:16.59 size: 41853 PSNR Mean Y:46.71 U:49.68 V:49.32 Avg:47.44 Global:46.30
    x264 [info]: frame B:115071 Avg QP:18.73 size: 17081 PSNR Mean Y:45.48 U:48.77 V:48.43 Avg:46.27 Global:45.02
    x264 [info]: consecutive B-frames: 3.3% 8.3% 8.3% 16.2% 17.3% 35.3% 5.4% 1.3% 1.3% 1.0% 0.7% 0.5% 0.4% 0.2% 0.2% 0.1% 0.2%
    x264 [total]: encoded 153311 frames, 3.64 fps, 4502.69 kb/s, duration 11:41:51.30

    Скриншот c названием фильма

    Скриншоты

    Убедительная просьба пожалуйста кто скачал не бросайте раздачу!!!
    Скачать .torrent

    Скачать торрент-файл бесплатно и на максимальной скорости!

    Как скачивать? · Что такое торрент? · Рейтинг и ограничения

    !ВНИМАНИЕ!
    Сайт не распространяет и не хранит электронные версии произведений, а занимается лишь лишь предоставлением доступа к создаваемому пользователями каталогу ссылок на торрент-файлы, которые содержат только списки хеш-сумм, убедительная просьба с жалобами обращаться напрямую к пользователю. Файлы для обмена на трекере предоставлены пользователями сайта, и администрация не несёт ответственности за их содержание. Просьба не заливать файлы, защищенные авторскими правами, а также файлы нелегального содержания!


    _________________
    [Профиль] [ЛС]
    Показать сообщения:    
    Ответить на тему

    Текущее время: Сегодня, в 10:42

    Часовой пояс: GMT + 2



    Вы не можете начинать темы
    Вы не можете отвечать на сообщения
    Вы не можете редактировать свои сообщения
    Вы не можете удалять свои сообщения
    Вы не можете голосовать в опросах
    Вы не можете прикреплять файлы к сообщениям
    Вы не можете скачивать файлы