BitTorrentTracker PerecTracker.org
BitTorrentTracker PerecTracker.org
    
Регистрация  ·  Вход
 
 · 
Забыли пароль?

  • Не верю, я - робот?! / OMG, I\'m a Robot! / Ani lo maamin, ani robot?! (Таль Гольдберг / Tal Goldberg, Галь Железняк / Gal Zelezniak) [2015, Израиль, фантастика, боевик, комедия, HDTVRip] Sub Rus, Heb + Original Heb

    Ответить на тему
     
    Автор Сообщение

    rechyn

    Создавать темы 23-Янв-2016 12:52

           

    [Цитировать]

    Не верю, я - робот?! / OMG, I'm a Robot! / Ani lo maamin, ani robot?!
    Страна: Израиль
    Жанр: фантастика, боевик, комедия
    Год выпуска: 2015
    Продолжительность: 01:15:06
    Перевод: Субтитры
    Cубтитры: русские (softsub, ASS), иврит (hardsub)
    Оригинальная аудиодорожка: иврит
    Режиссер: Таль Гольдберг, Галь Железняк / Tal Goldberg, Gal Zelezniak
    В ролях: Йотам Ишай, Хили Ялон, Цахи Град, Дрор Керен, Инна Бекельман, Роб Шнайдер, Нели Тагар, Давид Киглер, Ори Янив, Йосси Маршек
    Описание: Дани, инфантильный молодой человек, тяжело переживая уход подруги, решает покончить с собой, но внезапно обнаруживает, что он - робот...
    Доп. информация: ,
    Сэмпл: http://www.mediafire.com/watch/ma5d8otctj7rq2l/Samp...I_Am_a_Robot.avi
    Качество видео: HDTVRip
    Формат видео: AVI
    Видео: XviD 624х352 16:9 25 кадров/сек 1163 Кбит/сек
    Аудио: MP3 48 КГц 2 канала 128 Кбит/сек
    Формат субтитров: softsub (ASS)

    Образец субтитров

    Dialogue: 0,0:26:50.65,0:26:52.67,Default,,0,0,0,,Это было во время моей военной службы.
    Dialogue: 0,0:26:52.68,0:26:55.19,Default,,0,0,0,,Уже тогда я был технологическим гением,\Nи поэтому...
    Dialogue: 0,0:26:55.20,0:26:58.07,Default,,0,0,0,,был назначен в отдел личного состава -
    Dialogue: 0,0:26:58.08,0:27:02.23,Default,,0,0,0,,"Отдел личного состава -\NШабизот Новембер 85"
    Dialogue: 0,0:27:02.24,0:27:06.35,Default,,0,0,0,,Потом профессор Бернштейн\Nзаметила мои способности
    Dialogue: 0,0:27:06.35,0:27:10.51,Default,,0,0,0,,и перевела меня в место, окутанное тайнами, -
    Dialogue: 0,0:27:10.52,0:27:15.23,Default,,0,0,0,,подразделение сержантов -\Nотряд военных роботов.
    Dialogue: 0,0:27:15.33,0:27:17.40,Default,,0,0,0,,У профессора Бернштейн была мечта -
    Dialogue: 0,0:27:17.44,0:27:21.07,Default,,0,0,0,,создать робота, с искусственным интеллектом,
    Dialogue: 0,0:27:21.08,0:27:24.79,Default,,0,0,0,,который будет развиваться\Nот младенчества до зрелости
    Dialogue: 0,0:27:24.80,0:27:27.11,Default,,0,0,0,,и чувствовать так, как чувствует человек.
    Dialogue: 0,0:27:27.11,0:27:29.95,Default,,0,0,0,,Он запрограммировала их, как мирных роботов.
    Dialogue: 0,0:27:29.96,0:27:32.39,Default,,0,0,0,,Это было заложено в каждой строке их программы.
    Dialogue: 0,0:27:32.40,0:27:35.31,Default,,0,0,0,,Война должна была вызывать у них отвращение.
    Dialogue: 0,0:27:35.32,0:27:37.95,Default,,0,0,0,,Роботы-воины, единственное назначение которых -
    Dialogue: 0,0:27:37.96,0:27:40.39,Default,,0,0,0,,закончить войну, как можно скорее,
    Dialogue: 0,0:27:40.40,0:27:42.79,Default,,0,0,0,,и с минимальным числом пострадавших.
    Dialogue: 0,0:27:42.80,0:27:47.80,Default,,0,0,0,,Но, что делать? Стрелять и плакать\Nневозможно одновременно.
    Dialogue: 0,0:28:33.04,0:28:37.99,Default,,0,0,0,,Лаборатория закрыта, роботы уничтожены.
    Dialogue: 0,0:28:38.00,0:28:42.27,Default,,0,0,0,,И только одного малыша-робота не нашли.
    Dialogue: 0,0:28:42.28,0:28:44.75,Default,,0,0,0,,Ты знаешь, как это в армии, обвинили кладовщика,
    Dialogue: 0,0:28:44.76,0:28:47.23,Default,,0,0,0,,дали ему неделю заключения под охраной и...
    Dialogue: 0,0:28:47.24,0:28:52.24,Default,,0,0,0,,Всё, Бернштейн ушла домой,\Nи никто больше о ней не слышал.
    Dialogue: 0,0:28:52.48,0:28:55.47,Default,,0,0,0,,Продолжение истории ты можешь угадать.

    MediaInfo

    Общее
    Полное имя : OMG I Am a Robot.avi
    Формат : AVI
    Формат/Информация : Audio Video Interleave
    Размер файла : 700 Мбайт
    Продолжительность : 1 ч. 15 м.
    Режим общего битрейта : Переменный
    Общий поток : 1303 Кбит/сек
    Программа кодирования : VirtualDubMod 1.5.10.2 (build 2540/release)
    Библиотека кодирования : VirtualDubMod build 2540/release
    Видео
    Идентификатор : 0
    Формат : MPEG-4 Visual
    Профиль формата : Advanced Simple@L5
    Параметр BVOP формата : 2
    Параметр QPel формата : Нет
    Параметр GMC формата : Без точки перехода
    Параметр матрицы формата : Default (H.263)
    Идентификатор кодека : XVID
    Идентификатор кодека/Подсказка : XviD
    Продолжительность : 1 ч. 15 м.
    Битрейт : 1163 Кбит/сек
    Ширина : 624 пикселя
    Высота : 352 пикселя
    Соотношение сторон : 16:9
    Частота кадров : 25,000 кадров/сек
    Цветовое пространство : YUV
    Субдискретизация насыщенности : 4:2:0
    Битовая глубина : 8 бит
    Тип развёртки : Чересстрочная
    Порядок развёртки : Нижнее поле первое
    Метод сжатия : С потерями
    Бит/(Пиксели*Кадры) : 0.212
    Размер потока : 625 Мбайт (89%)
    Библиотека кодирования : XviD 64
    Аудио
    Идентификатор : 1
    Формат : MPEG Audio
    Версия формата : Version 1
    Профиль формата : Layer 3
    Режим : Joint stereo
    Расширение режима : MS Stereo
    Идентификатор кодека : 55
    Идентификатор кодека/Подсказка : MP3
    Продолжительность : 1 ч. 15 м.
    Вид битрейта : Переменный
    Битрейт : 128 Кбит/сек
    Каналы : 2 канала
    Частота : 48,0 КГц
    Метод сжатия : С потерями
    Размер потока : 68,1 Мбайт (10%)
    Выравнивание : Соединение по промежуткам
    Продолжительность промежутка : 24 мс. (0,60 видеокадр)
    Время предзагрузки промежутка : 521 мс.
    Библиотека кодирования : LAME3.90.
    Настройки программы : -m j -V 4 -q 2 -lowpass 17.6 --abr 128

    Скриншот c названием фильма

    Скриншоты

    Скачать .torrent

    Скачать торрент-файл бесплатно и на максимальной скорости!

    Как скачивать? · Что такое торрент? · Рейтинг и ограничения

    !ВНИМАНИЕ!
    Сайт не распространяет и не хранит электронные версии произведений, а занимается лишь лишь предоставлением доступа к создаваемому пользователями каталогу ссылок на торрент-файлы, которые содержат только списки хеш-сумм, убедительная просьба с жалобами обращаться напрямую к пользователю. Файлы для обмена на трекере предоставлены пользователями сайта, и администрация не несёт ответственности за их содержание. Просьба не заливать файлы, защищенные авторскими правами, а также файлы нелегального содержания!


    _________________
    [Профиль] [ЛС]
    Показать сообщения:    
    Ответить на тему

    Текущее время: Сегодня, в 11:44

    Часовой пояс: GMT + 2



    Вы не можете начинать темы
    Вы не можете отвечать на сообщения
    Вы не можете редактировать свои сообщения
    Вы не можете удалять свои сообщения
    Вы не можете голосовать в опросах
    Вы не можете прикреплять файлы к сообщениям
    Вы не можете скачивать файлы