BitTorrentTracker PerecTracker.org
BitTorrentTracker PerecTracker.org
    
Регистрация  ·  Вход
 
 · 
Забыли пароль?

  • Искатель Воды / The Water Diviner (Рассел Кроу / Russell Crowe) [2014, Австралия, США, Турция, Драма, HDRip-AVC] Dub

    Ответить на тему
     
    Автор Сообщение

    rechyn

    Создавать темы 23-Янв-2016 12:52

           

    [Цитировать]

    -Искатель Воды / The Water Diviner
    «A father's journey in search of his sons»--Страна: Австралия, США, Турция
    Жанр: Драма
    Год выпуска: 2014
    Продолжительность: 01:51:10-Перевод: Профессиональный (дублированный)-Cубтитры: нет
    Оригинальная аудиодорожка: нет-Режиссер: Рассел Кроу / Russell Crowe-В ролях: Рассел Кроу, Ольга Куриленко, Йылмаз Эрдоган, Джай Кортни, Дилан Георгиадес, Джем Йылмаз, Жаклин МакКензи, Райан Корр, Майкл Дорман, Кристофер Соммерс-Описание: Действие фильма разворачивается в 1919 году. Это история об австралийце, который отправляется на полуостров Галлиполи, где во время Первой мировой войны проходила ожесточенная битва, чтобы разыскать тела своих погибших сыновей. И неожиданно для себя он обретает надежду там, где и не мыслил ее найти.---Качество видео: HDRip-AVC
    Формат видео: MKV-Видео: MPEG-4 AVC, 1024x426 (2.40:1), 24.000 fps, ~1700 kbps avg, 0.161 bit/pixel
    Аудио: 48 kHz, AC3 Dolby Digital, 2/0 (L,R) ch, ~192 kbps avg-

    MediaInfo

    Complete name : E:\РАЗДАЧИ\The Water Diviner (2014) НDRip-AVC 1.45 Gb.mkv
    Format : Matroska
    Format version : Version 2
    File size : 1.46 GiB
    Duration : 1h 51mn
    Overall bit rate : 1 878 Kbps
    Movie name : The Water Diviner (2014) НDRip-AVC 1.45 Gb
    Encoded date : UTC 2016-01-22 11:48:45
    Writing application : mkvmerge v3.0.0 ('Hang up your Hang-Ups') built on Dec 12 2009 15:20:35
    Writing library : libebml v0.7.9 + libmatroska v0.8.1
    Cover : Yes
    Video
    ID : 1
    Format : AVC
    Format/Info : Advanced Video Codec
    Format profile : High@L4.1
    Format settings, CABAC : Yes
    Format settings, ReFrames : 9 frames
    Codec ID : V_MPEG4/ISO/AVC
    Duration : 1h 51mn
    Bit rate : 1 684 Kbps
    Width : 1 024 pixels
    Height : 426 pixels
    Display aspect ratio : 2.40:1
    Frame rate mode : Constant
    Frame rate : 24.000 fps
    Color space : YUV
    Chroma subsampling : 4:2:0
    Bit depth : 8 bits
    Scan type : Progressive
    Bits/(Pixel*Frame) : 0.161
    Stream size : 1.28 GiB (88%)
    Writing library : x264 core 130 r2273 b3065e6
    Encoding settings : cabac=1 / ref=9 / deblock=1:-3:-3 / analyse=0x3:0x113 / me=umh / subme=10 / psy=1 / psy_rd=1.00:0.15 / mixed_ref=1 / me_range=32 / chroma_me=1 / trellis=2 / 8x8dct=1 / cqm=0 / deadzone=21,11 / fast_pskip=1 / chroma_qp_offset=-3 / threads=6 / lookahead_threads=1 / sliced_threads=0 / nr=0 / decimate=0 / interlaced=0 / bluray_compat=0 / constrained_intra=0 / bframes=9 / b_pyramid=2 / b_adapt=2 / b_bias=0 / direct=3 / weightb=1 / open_gop=0 / weightp=2 / keyint=240 / keyint_min=23 / scenecut=40 / intra_refresh=0 / rc=2pass / mbtree=0 / bitrate=1684 / ratetol=1.0 / qcomp=0.60 / qpmin=0 / qpmax=69 / qpstep=4 / cplxblur=20.0 / qblur=0.5 / ip_ratio=1.40 / pb_ratio=1.30 / aq=1:1.00
    Default : Yes
    Forced : No
    Audio
    ID : 2
    Format : AC-3
    Format/Info : Audio Coding 3
    Mode extension : CM (complete main)
    Format settings, Endianness : Big
    Codec ID : A_AC3
    Duration : 1h 51mn
    Bit rate mode : Constant
    Bit rate : 192 Kbps
    Channel(s) : 2 channels
    Channel positions : Front: L R
    Sampling rate : 48.0 KHz
    Bit depth : 16 bits
    Compression mode : Lossy
    Stream size : 153 MiB (10%)
    Title : Дубляж
    Language : Russian
    Default : No
    Forced : No

    Скриншот c названием фильма

    Скриншоты

    Скачать .torrent

    Скачать торрент-файл бесплатно и на максимальной скорости!

    Как скачивать? · Что такое торрент? · Рейтинг и ограничения

    !ВНИМАНИЕ!
    Сайт не распространяет и не хранит электронные версии произведений, а занимается лишь лишь предоставлением доступа к создаваемому пользователями каталогу ссылок на торрент-файлы, которые содержат только списки хеш-сумм, убедительная просьба с жалобами обращаться напрямую к пользователю. Файлы для обмена на трекере предоставлены пользователями сайта, и администрация не несёт ответственности за их содержание. Просьба не заливать файлы, защищенные авторскими правами, а также файлы нелегального содержания!


    _________________
    [Профиль] [ЛС]
    Показать сообщения:    
    Ответить на тему

    Текущее время: Сегодня, в 04:14

    Часовой пояс: GMT + 2



    Вы не можете начинать темы
    Вы не можете отвечать на сообщения
    Вы не можете редактировать свои сообщения
    Вы не можете удалять свои сообщения
    Вы не можете голосовать в опросах
    Вы не можете прикреплять файлы к сообщениям
    Вы не можете скачивать файлы