BitTorrentTracker PerecTracker.org
BitTorrentTracker PerecTracker.org
    
Регистрация  ·  Вход
 
 · 
Забыли пароль?

  • Всё могу / Absolutely Anything (Терри Джонс / Terry Jones) [2015, Великобритания, США, фантастика, комедия, BDRip] Dub + Sub Rus

    Ответить на тему
     
    Автор Сообщение

    rechyn

    Создавать темы 23-Янв-2016 12:52

           

    [Цитировать]

    Всё могу / Absolutely Anything
    Страна: Великобритания, США
    Жанр: фантастика, комедия
    Год выпуска: 2015
    Продолжительность: 01:25:30
    Перевод: Профессиональный (дублированный)
    Cубтитры: русские (форсированные)
    Режиссер: Терри Джонс / Terry Jones
    В ролях: Кейт Бекинсейл, Робин Уильямс, Саймон Пегг, Терри Гиллиам, Джон Клиз, Роб Риггл, Джоанна Ламли, Эдди Иззард, Эрик Айдл, Эмма Пирсон, Терри Джонс, Майкл Пэйлин, Райан Олива, Роберт Бафёрст, Санджив Бхаскар, Алекса Дейвис, Марк Престон, Джуди Лу, Мира Сайал, Брайан Кокс
    Описание: Злобные инопланетяне, собираясь уничтожить Землю, дают ей последний шанс — наделяют учителя-неудачника Нила Кларка способностью исполнять любые желания. Он бы мог положить конец войнам или воскресить величайшие умы всех времен. Вот только как заманчиво: стать президентом США, соблазнить неприступную красотку или заставить заговорить собственного пса. Спасет ли Нил Кларк землю или устроит полный беспредел?
    Сэмпл: http://multi-up.com/1085370
    Качество видео: BDRip
    Формат видео: AVI
    Видео: 688x288 (2.40:1), 23.976 fps, XviD 73 ~1014 kbps avg, 0.213 bit/pixel
    Аудио: MP3, 192.00 kbps, 48 kHz, 2 ch

    MediaInfo

    General
    Complete name : F:\Video\Фильмы\Vse.MaGu.2015.Dub.XviD.BDRip.745Mb\Vse.MaGu.2015.Dub.XviD.BDRip.745Mb.avi
    Format : AVI
    Format/Info : Audio Video Interleave
    File size : 743 MiB
    Duration : 1h 25mn
    Overall bit rate : 1 215 Kbps
    Writing application : VirtualDubMod 1.5.10.3 | www.virtualdub-fr.org || (build 2550/release)
    Writing library : VirtualDubMod build 2550/release
    Video
    ID : 0
    Format : MPEG-4 Visual
    Format profile : Advanced Simple@L5
    Format settings, BVOP : 1
    Format settings, QPel : No
    Format settings, GMC : No warppoints
    Format settings, Matrix : Custom
    Codec ID : XVID
    Codec ID/Hint : XviD
    Duration : 1h 25mn
    Bit rate : 1 014 Kbps
    Width : 688 pixels
    Height : 288 pixels
    Display aspect ratio : 2.40:1
    Frame rate : 23.976 fps
    Color space : YUV
    Chroma subsampling : 4:2:0
    Bit depth : 8 bits
    Scan type : Progressive
    Compression mode : Lossy
    Bits/(Pixel*Frame) : 0.213
    Stream size : 620 MiB (83%)
    Writing library : XviD 73
    Audio
    ID : 1
    Format : MPEG Audio
    Format version : Version 1
    Format profile : Layer 3
    Codec ID : 55
    Codec ID/Hint : MP3
    Duration : 1h 25mn
    Bit rate mode : Constant
    Bit rate : 192 Kbps
    Channel count : 2 channels
    Sampling rate : 48.0 KHz
    Compression mode : Lossy
    Stream size : 117 MiB (16%)
    Alignment : Aligned on interleaves
    Interleave, duration : 42 ms (1.00 video frame)
    Interleave, preload duration : 504 ms
    Writing library : LAME3.99r
    Encoding settings : -m s -V 4 -q 0 -lowpass 18.6 -b 192

    Скриншот c названием фильма

    Скриншоты

    Скачать .torrent

    Скачать торрент-файл бесплатно и на максимальной скорости!

    Как скачивать? · Что такое торрент? · Рейтинг и ограничения

    !ВНИМАНИЕ!
    Сайт не распространяет и не хранит электронные версии произведений, а занимается лишь лишь предоставлением доступа к создаваемому пользователями каталогу ссылок на торрент-файлы, которые содержат только списки хеш-сумм, убедительная просьба с жалобами обращаться напрямую к пользователю. Файлы для обмена на трекере предоставлены пользователями сайта, и администрация не несёт ответственности за их содержание. Просьба не заливать файлы, защищенные авторскими правами, а также файлы нелегального содержания!


    _________________
    [Профиль] [ЛС]
    Показать сообщения:    
    Ответить на тему

    Текущее время: Сегодня, в 02:45

    Часовой пояс: GMT + 2



    Вы не можете начинать темы
    Вы не можете отвечать на сообщения
    Вы не можете редактировать свои сообщения
    Вы не можете удалять свои сообщения
    Вы не можете голосовать в опросах
    Вы не можете прикреплять файлы к сообщениям
    Вы не можете скачивать файлы