BitTorrentTracker PerecTracker.org
BitTorrentTracker PerecTracker.org
    
Регистрация  ·  Вход
 
 · 
Забыли пароль?

  • Мастер / The Master (Пол Томас Андерсон / Paul Thomas Anderson) [2012, США, драма, BDRip] Dub BD

    Ответить на тему
     
    Автор Сообщение

    rechyn

    Создавать темы 23-Янв-2016 12:52

           

    [Цитировать]

    Мастер / The Master-Страна: США / Annapurna Pictures, Ghoulardi Film Company..
    Жанр: драма
    Год выпуска: 2012
    Продолжительность: 02:17:30
    Перевод: Профессиональный (дублированный) лицензия BD
    Cубтитры: нет
    Режиссер: Пол Томас Андерсон / Paul Thomas Anderson
    В ролях: Хоакин Феникс, Филип Сеймур Хоффман, Эми Адамс, Лора Дерн, Джесси Племонс, Эмбир Чилдерс, Рами Малек, Мартин Д. Дью, Кевин Дж. О’Коннор, Патриция МакКормак.
    Описание: Демобилизованный моряк с загадочным прошлым не может найти места в послевоенной Америке. Он меняет одну работу за другой, пока случайно не знакомится с харизматичным создателем религиозного культа, известным писателем и философом. К удивлению приверженцев модного учения, их гуру делает агрессивного маргинала своим ближайшим помощником. По мере того как новая вера завоевывает поклонников, бывший бродяга начинает задаваться вопросами о том, во что он верит, и кем является его наставник на самом деле. Но некоторым тайнам лучше оставаться нераскрытыми...-imdb.com: 7.10 (99 203)
    kinopoisk.ru: 6.646 (16 307)
    MPAA: - лицам до 17 лет обязательно присутствие взрослого-Сэмпл: http://multi-up.com/1085458-Качество видео: BDRip [THE_MASTER_BLUEBIRD]
    Формат видео: AVI
    Видео: XviD build 65, 704x384 (1.85:1), 23.976 fps, ~1321 kbps avg, 0.204 bit/pixel
    Аудио: 48 kHz, AC3 Dolby Digital, 2/0 (L,R) ch, ~192 kbps avg (Dub)
    -

    MediaInfo

    General
    Complete name : D\The.Master.2012.Dub.BDRip.1,46Gb.XviD.AC3.avi
    Format : AVI
    Format/Info : Audio Video Interleave
    File size : 1.46 GiB
    Duration : 2h 17mn
    Overall bit rate : 1 522 Kbps
    Writing application : VirtualDubModRus 1.5.10.2 (build 2542/release)
    Writing library : VirtualDubMod build 2542/release
    Video
    ID : 0
    Format : MPEG-4 Visual
    Format profile : Advanced Simple@L5
    Format settings, BVOP : 1
    Format settings, QPel : No
    Format settings, GMC : No warppoints
    Format settings, Matrix : Custom
    Codec ID : XVID
    Codec ID/Hint : XviD
    Duration : 2h 17mn
    Bit rate : 1 321 Kbps
    Width : 704 pixels
    Height : 384 pixels
    Display aspect ratio : 1.85:1
    Frame rate : 23.976 fps
    Color space : YUV
    Chroma subsampling : 4:2:0
    Bit depth : 8 bits
    Scan type : Progressive
    Compression mode : Lossy
    Bits/(Pixel*Frame) : 0.204
    Stream size : 1.27 GiB (87%)
    Writing library : XviD 65
    Audio
    ID : 1
    Format : AC-3
    Format/Info : Audio Coding 3
    Mode extension : CM (complete main)
    Format settings, Endianness : Big
    Codec ID : 2000
    Duration : 2h 17mn
    Bit rate mode : Constant
    Bit rate : 192 Kbps
    Channel(s) : 2 channels
    Channel positions : Front: L R
    Sampling rate : 48.0 KHz
    Bit depth : 16 bits
    Compression mode : Lossy
    Stream size : 189 MiB (13%)
    Alignment : Split accross interleaves
    Interleave, duration : 42 ms (1.00 video frame)
    Interleave, preload duration : 500 ms
    Title : Dub

    Скриншоты


    Скачать .torrent

    Скачать торрент-файл бесплатно и на максимальной скорости!

    Как скачивать? · Что такое торрент? · Рейтинг и ограничения

    !ВНИМАНИЕ!
    Сайт не распространяет и не хранит электронные версии произведений, а занимается лишь лишь предоставлением доступа к создаваемому пользователями каталогу ссылок на торрент-файлы, которые содержат только списки хеш-сумм, убедительная просьба с жалобами обращаться напрямую к пользователю. Файлы для обмена на трекере предоставлены пользователями сайта, и администрация не несёт ответственности за их содержание. Просьба не заливать файлы, защищенные авторскими правами, а также файлы нелегального содержания!


    _________________
    [Профиль] [ЛС]
    Показать сообщения:    
    Ответить на тему

    Текущее время: Сегодня, в 10:48

    Часовой пояс: GMT + 2



    Вы не можете начинать темы
    Вы не можете отвечать на сообщения
    Вы не можете редактировать свои сообщения
    Вы не можете удалять свои сообщения
    Вы не можете голосовать в опросах
    Вы не можете прикреплять файлы к сообщениям
    Вы не можете скачивать файлы