BitTorrentTracker PerecTracker.org
BitTorrentTracker PerecTracker.org
    
Регистрация  ·  Вход
 
 · 
Забыли пароль?

  • Наш бренд – кризис / Our Brand Is Crisis (Дэвид Гордон Грин / David Gordon Green) [2015, США, Драма, комедия, BDRip] AVO (Андрей Дольский)

    Ответить на тему
     
    Автор Сообщение

    rechyn

    Создавать темы 23-Янв-2016 12:51

           

    [Цитировать]

    Наш бренд – кризис / Our Brand Is Crisis
    Страна: США
    Студия: Participant Media, Smokehouse Pictures
    Жанр: Драма, комедия
    Год выпуска: 2015
    Продолжительность: 01:47:31
    Перевод: Авторский (одноголосый закадровый) Андрей Дольский
    Cубтитры: нет
    Оригинальная аудиодорожка: нет
    Режиссер: Дэвид Гордон Грин / David Gordon Green
    В ролях: Сандра Баллок, Билли Боб Торнтон, Энтони Маки, Жоаким ди Алмейда, Энн Дауд, Скут МакНэри, Зои Казан, Стивен Флорес, Рейнальдо Пачеко, Луис Арселла, Октавио Гомез, Луис Чавес, Нина Леон
    Описание: Фильм, основанный на документальных съемках, покажет изнанку избирательной кампании 2002 года, когда кандидат в президенты Боливии Гонсало Санчес де Лосада нанял политтехнологов из консалтинговой фирмы Greenberg Quinlan Rosner, чтобы прийти к победе.
    Дополнительная информация:
    Автор релиза - ylnian
    Заказ и выкуп голоса Андрея Дольского - ylnian
    За наложение чистого голоса спасибо rammzez
    Источник для рипа - Our.Brand.Is.Crisis.2015.BluRay.1080p.AVC.DTS-HD.MA5.1-MTeam

    Сэмпл: https://yadi.sk/i/rdmNE1kInZoDj
    Качество видео: BDRip
    Формат видео: AVI
    Видео: XviD, 720x400 (16:9), 23.976 fps, 1491 kbps, 0.216 bit/pixel
    Аудио: Русский AC3, 48000 Гц, 6ch, 448 kbps - AVO (Андрей Дольский)

    MediaInfo

    Общее
    Полное имя : E:\Our Brand Is Crisis. 2015. BDRip - ylnian.avi
    Формат : AVI
    Формат/Информация : Audio Video Interleave
    Размер файла : 1,46 Гбайт
    Продолжительность : 1 ч. 47 м.
    Общий поток : 1948 Кбит/сек
    Программа кодирования : VirtualDubMod 1.5.10.2 (build 2540/release)
    Библиотека кодирования : VirtualDubMod build 2540/release
    Видео
    Идентификатор : 0
    Формат : MPEG-4 Visual
    Профиль формата : Advanced Simple@L5
    Параметр BVOP формата : 1
    Параметр QPel формата : Нет
    Параметр GMC формата : Без точки перехода
    Параметр матрицы формата : Default (H.263)
    Идентификатор кодека : XVID
    Идентификатор кодека/Подсказка : XviD
    Продолжительность : 1 ч. 47 м.
    Битрейт : 1491 Кбит/сек
    Ширина : 720 пикселей
    Высота : 400 пикселей
    Соотношение сторон : 16:9
    Частота кадров : 23,976 (24000/1001) кадра/сек
    Цветовое пространство : YUV
    Субдискретизация насыщенности : 4:2:0
    Битовая глубина : 8 бит
    Тип развёртки : Прогрессивная
    Метод сжатия : С потерями
    Бит/(Пиксели*Кадры) : 0.216
    Размер потока : 1,12 Гбайт (77%)
    Библиотека кодирования : XviD 1.2.1 (UTC 2008-12-04)
    Аудио
    Идентификатор : 1
    Формат : AC-3
    Формат/Информация : Audio Coding 3
    Расширение режима : CM (complete main)
    Параметр Endianness формата : Big
    Идентификатор кодека : 2000
    Продолжительность : 1 ч. 47 м.
    Вид битрейта : Постоянный
    Битрейт : 448 Кбит/сек
    Каналы : 6 каналов
    Расположение каналов : Front: L C R, Side: L R, LFE
    Частота : 48,0 КГц
    Частота кадров : 31,250 кадров/сек (1536 spf)
    Метод сжатия : С потерями
    Размер потока : 345 Мбайт (23%)
    Выравнивание : Разделение по промежуткам
    Продолжительность промежутка : 42 мс. (1,00 видеокадр)
    Время предзагрузки промежутка : 500 мс.

    Скриншот c названием фильма

    Скриншоты

    Скачать .torrent

    Скачать торрент-файл бесплатно и на максимальной скорости!

    Как скачивать? · Что такое торрент? · Рейтинг и ограничения

    !ВНИМАНИЕ!
    Сайт не распространяет и не хранит электронные версии произведений, а занимается лишь лишь предоставлением доступа к создаваемому пользователями каталогу ссылок на торрент-файлы, которые содержат только списки хеш-сумм, убедительная просьба с жалобами обращаться напрямую к пользователю. Файлы для обмена на трекере предоставлены пользователями сайта, и администрация не несёт ответственности за их содержание. Просьба не заливать файлы, защищенные авторскими правами, а также файлы нелегального содержания!


    _________________
    [Профиль] [ЛС]
    Показать сообщения:    
    Ответить на тему

    Текущее время: Сегодня, в 08:08

    Часовой пояс: GMT + 2



    Вы не можете начинать темы
    Вы не можете отвечать на сообщения
    Вы не можете редактировать свои сообщения
    Вы не можете удалять свои сообщения
    Вы не можете голосовать в опросах
    Вы не можете прикреплять файлы к сообщениям
    Вы не можете скачивать файлы