BitTorrentTracker PerecTracker.org
BitTorrentTracker PerecTracker.org
    
Регистрация  ·  Вход
 
 · 
Забыли пароль?

  • Неописуемая молодость / Silent Youth (Диемо Кеммесиес / Diemo Kemmesies) [2012, Германия, Гей-тема, драма, арт-хаус, DVDRip] VO ( Василий Кошкин.)

    Ответить на тему
     
    Автор Сообщение

    Columb

    Создавать темы 22-Дек-2013 16:02

           

    [Цитировать]

    Неописуемая молодость / Silent Youth

    Страна: Германия
    Жанр: Гей-тема, драма, арт-хаус.
    Год выпуска: 2012
    Продолжительность: 01:13:04
    Перевод: Одноголосый закадровый
    Перевод: mahrun; озвучка: Василий Кошкин.
    Cубтитры: нет
    Режиссер: Диемо Кеммесиес / Diemo Kemmesies
    В ролях: Мартин Брухман, Джозеф Маттес, Матиас Нойбер, Линда Шуле.

    Описание: Марлон чувствует себя абсолютно покинутым и никому не нужным. Это его весьма тяготит. Когда однажды, прогуливаясь по улицам Берлина после посещения своей подруги, он встречает Кирилла и интуитивно начинает преследовать его. В Кирилле есть нечто притягательное и это непонятным образом очаровывает Марлона. После более тесного знакомства, отношения между парнями продолжают развиваться. Они общаются и узнают больше друг о друге, ситуация становится ещё более запутанной и непредсказуемой. Марлон гонит от себя мысль, что он гей. Но в то же время не может отказать другу в его желаниях.
    Доп. информация: Это тихий, медлительный и поэтический фильм о любви без особых страстей и интриг, который медленно проявляется в маленьких жестах, намёках и осторожном сближении двух парней. Это рассказ о двух мечтающих парнях, ищущих себя в этой жизни, которые весьма раскованны друг с другом. Фильм для мечтателей и влюблённых.
    Ссылки


    Сэмпл:
    http://multi-up.com/934595
    Качество видео: DVDRip
    Формат видео: AVI
    Видео: XviD, 720x400 pixels, 16:9, 25.000 fps, 1 272 Kbps.
    Аудио: MP3, 44.1 KHz, 128 Kbps, 2 channels.

    MediaInfo

    Format : AVI
    Format/Info : Audio Video Interleave
    File size : 737 MiB
    Duration : 1h 13mn
    Overall bit rate : 1 410 Kbps
    Video
    ID : 0
    Format : MPEG-4 Visual
    Format profile : Advanced Simple@L5
    Format settings, BVOP : No
    Format settings, QPel : No
    Format settings, GMC : No warppoints
    Format settings, Matrix : Default (H.263)
    Codec ID : XVID
    Codec ID/Hint : XviD
    Duration : 1h 13mn
    Bit rate : 1 272 Kbps
    Width : 720 pixels
    Height : 400 pixels
    Display aspect ratio : 16:9
    Frame rate : 25.000 fps
    Color space : YUV
    Chroma subsampling : 4:2:0
    Bit depth : 8 bits
    Scan type : Progressive
    Compression mode : Lossy
    Bits/(Pixel*Frame) : 0.177
    Stream size : 665 MiB (90%)
    Writing library : XviD 62
    Audio
    ID : 1
    Format : MPEG Audio
    Format version : Version 1
    Format profile : Layer 3
    Codec ID : 55
    Codec ID/Hint : MP3
    Duration : 1h 13mn
    Bit rate mode : Constant
    Bit rate : 128 Kbps
    Channel count : 2 channels
    Sampling rate : 44.1 KHz
    Compression mode : Lossy
    Stream size : 66.9 MiB (9%)
    Alignment : Split accross interleaves
    Interleave, duration : 41 ms (1.03 video frame)

    Скриншот c названием фильма

    Скриншоты

    Скачать .torrent

    Скачать торрент-файл бесплатно и на максимальной скорости!

    Как скачивать? · Что такое торрент? · Рейтинг и ограничения

    !ВНИМАНИЕ!
    Сайт не распространяет и не хранит электронные версии произведений, а занимается лишь лишь предоставлением доступа к создаваемому пользователями каталогу ссылок на торрент-файлы, которые содержат только списки хеш-сумм, убедительная просьба с жалобами обращаться напрямую к пользователю. Файлы для обмена на трекере предоставлены пользователями сайта, и администрация не несёт ответственности за их содержание. Просьба не заливать файлы, защищенные авторскими правами, а также файлы нелегального содержания!

    [Профиль] [ЛС]
    Показать сообщения:    
    Ответить на тему

    Текущее время: Сегодня, в 06:46

    Часовой пояс: GMT + 2



    Вы не можете начинать темы
    Вы не можете отвечать на сообщения
    Вы не можете редактировать свои сообщения
    Вы не можете удалять свои сообщения
    Вы не можете голосовать в опросах
    Вы не можете прикреплять файлы к сообщениям
    Вы не можете скачивать файлы