BitTorrentTracker PerecTracker.org
BitTorrentTracker PerecTracker.org
    
Регистрация  ·  Вход
 
 · 
Забыли пароль?

  • Приговорённые 2: Охота в пустыне / The Condemned 2 (Роэль Рейн / Roel Reiné) [2015, США, боевик, триллер, BDRip-AVC] Dub + Original (Eng) + Sub (Eng)

    Ответить на тему
     
    Автор Сообщение

    rechyn

    Создавать темы 22-Янв-2016 20:03

           

    [Цитировать]

    Приговорённые 2: Охота в пустыне
    The Condemned 2

    Страна: США
    Жанр: боевик, триллер
    Год выпуска: 2015
    Продолжительность: 01:30:14
    Перевод: Профессиональный (полное дублирование) [Лицензия iTunes]
    Субтитры: английские (full), английские (SDH)
    Оригинальная аудиодорожка: английский
    Режиссер: Роэль Рейн / Roel Reiné
    В ролях: Рэнди Ортон, Эрик Робертс, Уэс Стьюди, Стивен Майкл Квезада, Билл Стинчкомб, Алекс Найт, Дилан Кенин, Майкл Шитс, Дон Бикнелл, Марк Сивертсен, Мерритт К. Гловер, Мэттью Пейдж
    Описание:
    Уилл Таннер из тех, кто выбрал для себя профессию «охотников за головами». Однажды он попадает в серьезные неприятности: его задерживает полиция, и ему выносят приговор. Его и бывшую его команду вовлекают в игру на выживание под объективами камер в угоду интересам благополучной публики. Ставки сделаны, приговоренные должны проявить в жестких обстоятельствах максимум своих способностей: сражаться и избегать ловушек, быть выносливыми и изобретательными.
    Автор рипа: Stalker oK
    Сэмпл
    Качество видео: BDRip-AVC [kinozal / Blu-ray Remux / 1080p]
    Формат видео: MKV
    Видео кодек: AVC
    Аудио кодек: AC3
    Видео: 3723 Кбит/сек, 1056*594 (16:9), в 23,976 (24000/1001) кадра/сек, AVC
    Аудио #1: Russian, 384 Кбит/сек, 48,0 КГц, 6 каналов, AC-3
    Аудио #2: English, 448 Кбит/сек, 48,0 КГц, 6 каналов, AC-3
    Навигация по главам: есть

    Log x264

    ---[Information] [21.01.2016 15:39:08] x264 [info]: frame I:1030 Avg QP:15.24 size:107961
    ---[Information] [21.01.2016 15:39:08] x264 [info]: frame P:35172 Avg QP:18.91 size: 35622
    ---[Information] [21.01.2016 15:39:08] x264 [info]: frame B:93615 Avg QP:20.97 size: 12261

    MediaInfo

    Общее
    Уникальный идентификатор : 202641135488152357031009797176594082086 (0x98734359381AF1019650518F40ED2926)
    Полное имя : M:\Rips3\The Condemned 2\The.Condemned.2.2015.BDRip-AVC.Dub.2.91Gb.stalkerok.new-team.mkv
    Формат : Matroska
    Версия формата : Version 4 / Version 2
    Размер файла : 2,87 Гбайт
    Продолжительность : 1 ч. 30 м.
    Общий поток : 4523 Кбит/сек
    Название фильма : The Condemned 2 (2015) (New-Team) (Rip by Stalker oK)
    Дата кодирования : UTC 2016-01-21 17:36:04
    Программа кодирования : mkvmerge v8.6.1 ('Flying') 64bit
    Библиотека кодирования : libebml v1.3.3 + libmatroska v1.4.4
    Видео
    Идентификатор : 1
    Формат : AVC
    Формат/Информация : Advanced Video Codec
    Профиль формата : High@L4.1
    Параметр CABAC формата : Да
    Параметр ReFrames формата : 13 кадров
    Идентификатор кодека : V_MPEG4/ISO/AVC
    Продолжительность : 1 ч. 30 м.
    Битрейт : 3723 Кбит/сек
    Ширина : 1056 пикселей
    Высота : 594 пикселя
    Соотношение сторон : 16:9
    Режим частоты кадров : Постоянный
    Частота кадров : 23,976 (24000/1001) кадра/сек
    Цветовое пространство : YUV
    Субдискретизация насыщенности : 4:2:0
    Битовая глубина : 8 бит
    Тип развёртки : Прогрессивная
    Бит/(Пиксели*Кадры) : 0.248
    Размер потока : 2,34 Гбайт (82%)
    Заголовок : The Condemned 2 (2015) (New-Team) (Rip by Stalker oK)
    Библиотека кодирования : x264 core 148 r2665kMod a01e339
    Настройки программы : cabac=1 / ref=13 / deblock=1:-3:-3 / analyse=0x3:0x133 / me=umh / subme=11 / psy=1 / fade_compensate=0.00 / psy_rd=1.00:0.10 / mixed_ref=1 / me_range=48 / chroma_me=1 / trellis=2 / 8x8dct=1 / cqm=0 / deadzone=21,11 / fast_pskip=0 / chroma_qp_offset=-3 / threads=12 / lookahead_threads=3 / sliced_threads=0 / nr=0 / decimate=0 / interlaced=0 / bluray_compat=0 / constrained_intra=0 / fgo=0 / bframes=14 / b_pyramid=2 / b_adapt=2 / b_bias=0 / direct=3 / weightb=1 / open_gop=0 / weightp=2 / keyint=240 / keyint_min=23 / scenecut=40 / intra_refresh=0 / rc_lookahead=60 / rc=2pass / mbtree=0 / bitrate=3723 / ratetol=1.0 / qcomp=0.70 / qpmin=0 / qpmax=69 / qpstep=4 / cplxblur=20.0 / qblur=0.5 / vbv_maxrate=50000 / vbv_bufsize=62500 / nal_hrd=none / filler=0 / ip_ratio=1.40 / pb_ratio=1.30 / aq=3:0.90
    Default : Да
    Forced : Нет
    Аудио #1
    Идентификатор : 2
    Формат : AC-3
    Формат/Информация : Audio Coding 3
    Расширение режима : CM (complete main)
    Параметр Endianness формата : Big
    Идентификатор кодека : A_AC3
    Продолжительность : 1 ч. 30 м.
    Вид битрейта : Постоянный
    Битрейт : 384 Кбит/сек
    Каналы : 6 каналов
    Расположение каналов : Front: L C R, Side: L R, LFE
    Частота : 48,0 КГц
    Частота кадров : 31,250 кадров/сек (1536 spf)
    Метод сжатия : С потерями
    Размер потока : 248 Мбайт (8%)
    Заголовок : iTunes
    Язык : Russian
    Default : Да
    Forced : Нет
    Аудио #2
    Идентификатор : 3
    Формат : AC-3
    Формат/Информация : Audio Coding 3
    Расширение режима : CM (complete main)
    Параметр Endianness формата : Big
    Идентификатор кодека : A_AC3
    Продолжительность : 1 ч. 30 м.
    Вид битрейта : Постоянный
    Битрейт : 448 Кбит/сек
    Каналы : 6 каналов
    Расположение каналов : Front: L C R, Side: L R, LFE
    Частота : 48,0 КГц
    Частота кадров : 31,250 кадров/сек (1536 spf)
    Метод сжатия : С потерями
    Размер потока : 291 Мбайт (10%)
    Язык : English
    Default : Нет
    Forced : Нет
    Текст #1
    Идентификатор : 4
    Формат : UTF-8
    Идентификатор кодека : S_TEXT/UTF8
    Идентификатор кодека/Информация : UTF-8 Plain Text
    Продолжительность : 1 ч. 22 м.
    Битрейт : 44 бит/сек
    Count of elements : 931
    Размер потока : 26,7 Кбайт (0%)
    Заголовок : full
    Язык : English
    Default : Нет
    Forced : Нет
    Текст #2
    Идентификатор : 5
    Формат : UTF-8
    Идентификатор кодека : S_TEXT/UTF8
    Идентификатор кодека/Информация : UTF-8 Plain Text
    Продолжительность : 1 ч. 22 м.
    Битрейт : 48 бит/сек
    Count of elements : 1063
    Размер потока : 29,4 Кбайт (0%)
    Заголовок : SDH
    Язык : English
    Default : Нет
    Forced : Нет
    Меню
    00:00:00.000 : en:00:00:00.000
    00:05:10.268 : en:00:05:10.268
    00:10:51.693 : en:00:10:51.693
    00:16:40.958 : en:00:16:40.958
    00:24:10.824 : en:00:24:10.824
    00:29:33.063 : en:00:29:33.063
    00:35:30.712 : en:00:35:30.712
    00:40:32.096 : en:00:40:32.096
    00:46:27.910 : en:00:46:27.910
    00:50:58.847 : en:00:50:58.847
    00:58:51.236 : en:00:58:51.236
    01:05:29.134 : en:01:05:29.134
    01:09:39.634 : en:01:09:39.634
    01:13:52.803 : en:01:13:52.803
    01:18:19.862 : en:01:18:19.862
    01:23:30.255 : en:01:23:30.255

    Скриншоты

    [/URL]
    Скачать .torrent

    Скачать торрент-файл бесплатно и на максимальной скорости!

    Как скачивать? · Что такое торрент? · Рейтинг и ограничения

    !ВНИМАНИЕ!
    Сайт не распространяет и не хранит электронные версии произведений, а занимается лишь лишь предоставлением доступа к создаваемому пользователями каталогу ссылок на торрент-файлы, которые содержат только списки хеш-сумм, убедительная просьба с жалобами обращаться напрямую к пользователю. Файлы для обмена на трекере предоставлены пользователями сайта, и администрация не несёт ответственности за их содержание. Просьба не заливать файлы, защищенные авторскими правами, а также файлы нелегального содержания!


    _________________
    [Профиль] [ЛС]
    Показать сообщения:    
    Ответить на тему

    Текущее время: Сегодня, в 01:20

    Часовой пояс: GMT + 2



    Вы не можете начинать темы
    Вы не можете отвечать на сообщения
    Вы не можете редактировать свои сообщения
    Вы не можете удалять свои сообщения
    Вы не можете голосовать в опросах
    Вы не можете прикреплять файлы к сообщениям
    Вы не можете скачивать файлы