BitTorrentTracker PerecTracker.org
BitTorrentTracker PerecTracker.org
    
Регистрация  ·  Вход
 
 · 
Забыли пароль?

  • Последний охотник на ведьм / The Last Witch Hunter (Брек Эйснер / Breck Eisner) [2015, США, Китай, Канада, фэнтези, боевик, приключения, WEB-DL 1080p] Dub (iTunes Russia)

    Ответить на тему
     
    Автор Сообщение

    Flirldrerve

    Создавать темы 21-Янв-2016 02:07

           

    [Цитировать]

    Последний охотник на ведьм / The Last Witch Hunter-Страна: США, Китай, Канада
    Жанр: фэнтези, боевик, приключения
    Год выпуска: 2015
    Продолжительность: 01:46:26
    Перевод: Профессиональный (дублированный) iTunes Russia-Cубтитры: нет
    Оригинальная аудиодорожка: нет-Режиссер: Брек Эйснер
    В ролях: Вин Дизель, Роуз Лесли, Элайджа Вуд, Оулавюр Дарри Оулафссон, Рина Оуэн, Юли Энгельбрехт, Майкл Кейн, Джозеф Гилган, Исаак Де Банколе, Майкл Халсли-Описание: Современный мир скрывает множество секретов, но самым удивительным из них является то, что ведьмы до сих пор живут среди нас. Это злобные сверхъестественные существа, чья цель — наслать на мир смертоносную чуму. Армии охотников на ведьм сражались с ними на протяжении многих веков.
    В наши дни остался всего лишь один охотник на ведьм, Колдер, которому однажды удалось убить всемогущую королеву ведьм. Но Колдер еще не знает, что королева воскресла и жаждет отомстить своему убийце.-Сэмпл-Качество видео: WEB-DL 1080p
    Формат видео: MKV
    Видео: Matroska, 1920x1080 at 24.000 fps, MPEG-4 AVC, 4849 kbps
    Аудио: Russian: 48 kHz, AC3, 3/2 (L,C,R,l,r) + LFE ch, ~384.00 kbps avg |Дубляж, iTunes Russia|-

    MediaInfo

    Общее
    Уникальный идентификатор : 180977923599115483721115276414296275643 (0x8827148A2AAB6386B46F28D820A03ABB)
    Полное имя : The.Last.Witch.Hunter.2015.D.WEB-DL.1080p.mkv
    Формат : Matroska
    Версия формата : Version 4 / Version 2
    Размер файла : 3,97 Гбайт
    Продолжительность : 1 ч. 46 м.
    Общий поток : 5340 Кбит/сек
    Дата кодирования : UTC 2016-01-11 19:55:20
    Программа кодирования : mkvmerge v6.5.0 ('Isn't she lovely') built on Oct 20 2013 12:50:05
    Библиотека кодирования : libebml v1.3.0 + libmatroska v1.4.1
    Видео
    Идентификатор : 1
    Формат : AVC
    Формат/Информация : Advanced Video Codec
    Профиль формата : High@L4
    Параметр CABAC формата : Да
    Параметр ReFrames формата : 4 кадра
    Идентификатор кодека : V_MPEG4/ISO/AVC
    Продолжительность : 1 ч. 46 м.
    Битрейт : 4849 Кбит/сек
    Ширина : 1920 пикселей
    Высота : 1080 пикселей
    Соотношение сторон : 16:9
    Режим частоты кадров : Постоянный
    Частота кадров : 24,000 кадра/сек
    Цветовое пространство : YUV
    Субдискретизация насыщенности : 4:2:0
    Битовая глубина : 8 бит
    Тип развёртки : Прогрессивная
    Бит/(Пиксели*Кадры) : 0.097
    Размер потока : 3,61 Гбайт (91%)
    Язык : English
    Default : Да
    Forced : Нет
    Цветовой диапазон : Limited
    Основные цвета : BT.709
    Характеристики трансфера : BT.709
    Коэффициенты матрицы : BT.709
    Аудио
    Идентификатор : 2
    Формат : AC-3
    Формат/Информация : Audio Coding 3
    Расширение режима : CM (complete main)
    Параметр Endianness формата : Big
    Идентификатор кодека : A_AC3
    Продолжительность : 1 ч. 46 м.
    Вид битрейта : Постоянный
    Битрейт : 384 Кбит/сек
    Каналы : 6 каналов
    Расположение каналов : Front: L C R, Side: L R, LFE
    Частота : 48,0 КГц
    Метод сжатия : С потерями
    Размер потока : 292 Мбайт (7%)
    Язык : Russian
    Default : Да
    Forced : Нет

    Скриншоты

    Скачать .torrent

    Скачать торрент-файл бесплатно и на максимальной скорости!

    Как скачивать? · Что такое торрент? · Рейтинг и ограничения

    !ВНИМАНИЕ!
    Сайт не распространяет и не хранит электронные версии произведений, а занимается лишь лишь предоставлением доступа к создаваемому пользователями каталогу ссылок на торрент-файлы, которые содержат только списки хеш-сумм, убедительная просьба с жалобами обращаться напрямую к пользователю. Файлы для обмена на трекере предоставлены пользователями сайта, и администрация не несёт ответственности за их содержание. Просьба не заливать файлы, защищенные авторскими правами, а также файлы нелегального содержания!


    _________________
    [Профиль] [ЛС]
    Показать сообщения:    
    Ответить на тему

    Текущее время: Сегодня, в 00:39

    Часовой пояс: GMT + 2



    Вы не можете начинать темы
    Вы не можете отвечать на сообщения
    Вы не можете редактировать свои сообщения
    Вы не можете удалять свои сообщения
    Вы не можете голосовать в опросах
    Вы не можете прикреплять файлы к сообщениям
    Вы не можете скачивать файлы