BitTorrentTracker PerecTracker.org
BitTorrentTracker PerecTracker.org
    
Регистрация  ·  Вход
 
 · 
Забыли пароль?

  • Шепот / The Whispering (Грегори Гиерас / Gregory Giera) [1995, США, Мистический триллер, ужасы, VHSRip] AVO (Андрей Гаврилов)

    Ответить на тему
     
    Автор Сообщение

    Columb

    Создавать темы 22-Дек-2013 15:56

           

    [Цитировать]

    Шепот / The Whispering
    Страна: США
    Жанр: Мистический триллер, ужасы
    Год выпуска: 1995
    Продолжительность: 01:29:08
    Перевод: Авторский (одноголосый закадровый) Андрей Гаврилов
    Cубтитры: Hardsub
    Режиссер: Грегори Гиерас / Gregory Giera
    В ролях: Седрик Террелл, Метте Холт, Скотт Джонсон, Лесли Данон, Джон Грипентрог, Луиз Страттен, Джошуа Брэзнер, Стюарт Харна, Тиффани Салерно, Лейф Гаррет
    Описание: 1. Найти и обезвредить преступника всегда нелегко, особенно если убийца смертельными узами связан с потусторонними силами. Сотрудник страхового агентства Питер Ранскет начинает расследование гибели и вскоре выходит на след убийцы…
    2. Вопреки воле начальства сотрудник страхового агенства Питер Рэнскет (Гэррет) начинает расследование самоубийства, подозревая, что за этой смертью кроется нечто большее. Постепенно выясняется, что убийца живет не в нашем реальном мире, а... Помогает ему в этом симпатичная девушка, которую он расспрашивал о покойном, и врач-психиатр, проникающий при помощи гипноза в самые потаенные воспоминания и подсознание Питера, где ему и слышится шепот, толкающий людей на самоубийство - сестра Питера Сэра тоже покончила собой. Чей это шепот и кто услышит его следующим? Сценаристы Лесли Дэнон и Остин Рид постарались на славу - завораживающий, достоверно снятый фильм не даст вам заснуть спокойно. (Иванов М.)
    Доп. информация: Исходный видеоряд с Синемагеддона.
    За звуковую дорогу с переводом Андрея Гаврилова благодарим dimanmf.
    За видеоряд, синхронизацию дороги и работу со звуком большая благодарность ale_x2008.
    Качество видео: VHSRip
    Формат видео: AVI
    Видео: XviD MPEG-4, 512x368 (1.39:1), 29.970 fps, 956 kbps avg, 0.17 bit/pixel
    Аудио: MPEG Layer 3, 48000 Hz, 2 ch (mono), 128.00 kbps avg
    Формат субтитров: hardsub (неотключаемые)
    Доп. информация о субтитрах: португальский

    MediaInfo

    Шепот - The Whispering .avi
    Format : AVI
    Format/Info : Audio Video Interleave
    File size : 698 MiB
    Duration : 1h 29mn
    Overall bit rate : 1 095 Kbps
    Video
    ID : 0
    Format : MPEG-4 Visual
    Format profile : Advanced Simple@L5
    Format settings, BVOP : 1
    Format settings, QPel : No
    Format settings, GMC : No warppoints
    Format settings, Matrix : Default (MPEG)
    Codec ID : XVID
    Codec ID/Hint : XviD
    Duration : 1h 29mn
    Bit rate : 956 Kbps
    Width : 512 pixels
    Height : 368 pixels
    Display aspect ratio : 1.391
    Frame rate : 29.970 fps
    Color space : YUV
    Chroma subsampling : 4:2:0
    Bit depth : 8 bits
    Scan type : Progressive
    Compression mode : Lossy
    Bits/(Pixel*Frame) : 0.169
    Stream size : 609 MiB (87%)
    Writing library : XviD 1.2.0.dev47 (UTC 2006-11-01)
    Audio
    ID : 1
    Format : MPEG Audio
    Format version : Version 1
    Format profile : Layer 3
    Mode : Joint stereo
    Mode extension : MS Stereo
    Codec ID : 55
    Codec ID/Hint : MP3
    Duration : 1h 29mn
    Bit rate mode : Constant
    Bit rate : 128 Kbps
    Channel count : 2 channels
    Sampling rate : 48.0 KHz
    Compression mode : Lossy
    Stream size : 81.6 MiB (12%)
    Alignment : Aligned on interleaves
    Interleave, duration : 33 ms (1.00 video frame)
    Interleave, preload duration : 504 ms
    Writing library : LAME3.98r
    Encoding settings : -m j -V 4 -q 5 -lowpass 17 -b 128

    Скриншоты


    Скачать .torrent

    Скачать торрент-файл бесплатно и на максимальной скорости!

    Как скачивать? · Что такое торрент? · Рейтинг и ограничения

    !ВНИМАНИЕ!
    Сайт не распространяет и не хранит электронные версии произведений, а занимается лишь лишь предоставлением доступа к создаваемому пользователями каталогу ссылок на торрент-файлы, которые содержат только списки хеш-сумм, убедительная просьба с жалобами обращаться напрямую к пользователю. Файлы для обмена на трекере предоставлены пользователями сайта, и администрация не несёт ответственности за их содержание. Просьба не заливать файлы, защищенные авторскими правами, а также файлы нелегального содержания!

    [Профиль] [ЛС]
    Показать сообщения:    
    Ответить на тему

    Текущее время: Сегодня, в 07:53

    Часовой пояс: GMT + 2



    Вы не можете начинать темы
    Вы не можете отвечать на сообщения
    Вы не можете редактировать свои сообщения
    Вы не можете удалять свои сообщения
    Вы не можете голосовать в опросах
    Вы не можете прикреплять файлы к сообщениям
    Вы не можете скачивать файлы