BitTorrentTracker PerecTracker.org
BitTorrentTracker PerecTracker.org
    
Регистрация  ·  Вход
 
 · 
Забыли пароль?

  • [ATV3] Легенда / Legend (Брайан Хелгеленд / Brian Helgeland ) [2015, Великобритания, Франция, Криминал, триллер, драма, BDRip, HD (1080p)] DUB + Original + sub (eng)

    Ответить на тему
     
    Автор Сообщение

    Flirldrerve

    Создавать темы 21-Янв-2016 02:06

           

    [Цитировать]

    Легенда / Legend
    «Преступление – как профессия. Взлет и падение легендарных близнецов Крэй»
    7.274 / 10 7.30 / 10
    -Год выпуска: 2015
    Страна: Великобритания, Франция
    Жанр: Криминал, триллер, драма
    Продолжительность: 02:11:08
    Перевод: Дублированный (iTunes)
    Оригинальная аудиодорожка: Есть
    Cубтитры: Английские
    Режиссёр: Брайан Хелгеленд
    Сценарий: Брайан Хелгеленд, Джон Пирсон
    Продюсер: Тим Беван, Крис Кларк, Квентин Кертис
    Оператор: Дик Поуп
    Композитор: Картер Бёруэлл
    Художник: Том Конрой, Гарет Казинс, Марко Антон Рестиво
    Монтаж: Питер МакНалти
    В ролях: Том Харди, Эмили Браунинг, Дэвид Тьюлис, Даффи, Кристофер Экклстон, Чазз Пальминтери, Колин Морган, Джошуа Хилл, Пол Андерсон, Тара Фитцджеральд
    Бюджет: $25 000 000
    Сборы в США: $1 872 994
    Сборы в России: $2 339 330
    Мировая премьера: 9 сентября 2015
    Премьера (РФ): 1 октября 2015, «Парадиз»
    Описание: Фильм расскажет историю близнецов Реджи и Ронни Крэй, культовых фигур преступного мира Великобритании 1960-х. Братья возглавляли самую влиятельную бандитскую группировку Ист-Энда. В их послужном списке: вооруженные грабежи, рэкет, поджоги, покушения, убийства и собственный ночной клуб, куда доезжали даже голливудские знаменитости. Среди их жертв — криминальные авторитеты Джек МакВитти и Джордж Корнелл.-Качество исходника: BDRemux (HDClub)
    Качество: BDRip
    Тип: HD (1080p)
    Контейнер: M4V
    Видео: H.264, 1920x800, 2.40:1, 8 000 Kbps, 23.976 (24000/1001) fps
    Аудио 1: Русский/Дублированный (iTunes), AAC / 2.0 / 157 Kbps / 48.0 KHz
    Аудио 2: Английский/Оригинальная дорожка , AAC / 2.0 / 156 Kbps / 48.0 KHz
    Аудио 3: Русский/Дублированный (iTunes), AC-3 / 5.1 / 384 Kbps / 48.0 KHz
    Аудио 4: Английский/Оригинальная дорожка , AC-3 / 5.1 / 640 Kbps / 48.0 KHz
    Субтитры: Английские полные
    -

    iTunes Meta Tags

    Sort Name: Legend
    XID: Apple:vendor_id:2015-839954
    contentID: 1036750350
    Copyright: © 2015 STUDIOCANAL S.A. Distributed by STUDIOCANAL LIMITED.
    Screenwriters: Брайан Хелгеленд, Джон Пирсон
    Producers: Тим Беван, Крис Кларк, Квентин Кертис
    Director: Брайан Хелгеленд
    Cast: Том Харди, Эмили Браунинг, Дэвид Тьюлис, Даффи, Кристофер Экклстон, Чазз Пальминтери, Колин Морган, Джошуа Хилл, Пол Андерсон, Тара Фитцджеральд
    Studio: STUDIOCANAL Ltd
    Rating Annotation: Rated 18 very strong language, strong violence
    Rating: 126
    Long Description: Фильм расскажет историю близнецов Реджи и Ронни Крэй, культовых фигур преступного мира Великобритании 1960-х. Братья возглавляли самую влиятельную бандитскую группировку Ист-Энда. В их послужном списке: вооруженные грабежи, рэкет, поджоги, покушения, убийства и собственный ночной клуб, куда доезжали даже голливудские знаменитости. Среди их жертв - криминальные авторитеты Джек МакВитти и Джордж Корнелл.
    Description: Фильм расскажет историю близнецов Реджи и Ронни Крэй, культовых фигур преступного мира Великобритании 1960-х. Братья возглавляли самую влиятельную бандитскую группировку Ист-Энда. В их послужном списке: вооруженные грабежи, рэкет, поджоги, покушения, убийства и собственный ночной клуб, куда доезжали даже голливудские знаменитости. Среди их жертв - криминальные авторитеты Джек МакВитти и Джордж Корнелл.
    Release Date: 2015-09-09T08:00:00Z
    Genre: Thriller
    Artist: Brian Helgeland
    Name: Legend

    MediaInfo

    General
    Complete name : /Users/imac/HandBrake/Legend (1080p HD).m4v
    Format : MPEG-4
    Codec ID : M4V  (M4V /M4A /mp42/isom)
    File size : 8.55 GiB
    Duration : 2h 11mn
    Overall bit rate mode : Variable
    Overall bit rate : 9 334 Kbps
    Movie name : Legend
    Performer : Brian Helgeland
    Director : Брайан Хелгеленд
    Actor : Том Харди / Эмили Браунинг / Дэвид Тьюлис / Даффи / Кристофер Экклстон / Чазз Пальминтери / Колин Морган / Джошуа Хилл / Пол Андерсон / Тара Фитцджеральд
    Screenplay by : Брайан Хелгеленд / Джон Пирсон
    Producer : Тим Беван / Крис Кларк / Квентин Кертис
    Production studio : STUDIOCANAL Ltd
    Genre : Thriller
    ContentType : Short Film
    Description : Фильм расскажет историю близнецов Реджи и Ронни Крэй, культовых фигур преступного мира Великобритании 1960-х. Братья возглавляли самую влиятельную бандитскую группировку Ист-Энда. В их послужном списке: вооруженные грабежи, рэкет, поджоги, покушения, убийства и собственный ночной клуб, куда доезжали даже голливудские знаменитости. Среди их жертв - криминальные авторитеты Джек МакВитти и Джордж Корнелл.
    Recorded date : UTC 2015-09-09 08:00:00
    Encoded date : UTC 2016-01-20 21:13:09
    Tagged date : UTC 2016-01-20 21:20:03
    Copyright : © 2015 STUDIOCANAL S.A. Distributed by STUDIOCANAL LIMITED.
    Cover : Yes
    Rating : None
    Title/Sort : Legend
    LongDescription : Фильм расскажет историю близнецов Реджи и Ронни Крэй, культовых фигур преступного мира Великобритании 1960-х. Братья возглавляли самую влиятельную бандитскую группировку Ист-Энда. В их послужном списке: вооруженные грабежи, рэкет, поджоги, покушения, убийства и собственный ночной клуб, куда доезжали даже голливудские знаменитости. Среди их жертв - криминальные авторитеты Джек МакВитти и Джордж Корнелл.
    AppleStoreCatalogID : 1036750350
    Vendor : Apple:vendor_id:2015-839954
    ContentRating : uk-movie|18|400|Rated 18 very strong language, strong violence
    Video #1
    ID : 1
    Format : AVC
    Format/Info : Advanced Video Codec
    Format profile : High@L4
    Format settings, CABAC : Yes
    Format settings, ReFrames : 4 frames
    Codec ID : avc1
    Codec ID/Info : Advanced Video Coding
    Duration : 2h 11mn
    Source duration : 2h 11mn
    Bit rate : 8 000 Kbps
    Width : 1 920 pixels
    Height : 800 pixels
    Display aspect ratio : 2.40:1
    Frame rate mode : Variable
    Frame rate : 23.976 (24000/1001) fps
    Minimum frame rate : 23.810 fps
    Maximum frame rate : 24.318 fps
    Color space : YUV
    Chroma subsampling : 4:2:0
    Bit depth : 8 bits
    Scan type : Progressive
    Bits/(Pixel*Frame) : 0.217
    Stream size : 7.32 GiB (86%)
    Source stream size : 7.32 GiB (86%)
    Title : Main Program
    Writing library : x264 core 142 r2479 dd79a61
    Encoding settings : cabac=1 / ref=4 / deblock=1:-2:-2 / analyse=0x3:0x133 / me=umh / subme=10 / psy=1 / psy_rd=1.00:0.15 / mixed_ref=1 / me_range=32 / chroma_me=1 / trellis=2 / 8x8dct=1 / cqm=0 / deadzone=21,11 / fast_pskip=0 / chroma_qp_offset=-3 / threads=36 / lookahead_threads=6 / sliced_threads=0 / nr=0 / decimate=0 / interlaced=0 / bluray_compat=0 / constrained_intra=0 / bframes=16 / b_pyramid=2 / b_adapt=2 / b_bias=0 / direct=3 / weightb=1 / open_gop=0 / weightp=2 / keyint=240 / keyint_min=24 / scenecut=40 / intra_refresh=0 / rc_lookahead=60 / rc=2pass / mbtree=1 / bitrate=8000 / ratetol=1.0 / qcomp=0.70 / qpmin=0 / qpmax=69 / qpstep=4 / cplxblur=20.0 / qblur=0.5 / vbv_maxrate=25000 / vbv_bufsize=25000 / nal_hrd=none / filler=0 / ip_ratio=1.40 / aq=1:1.00
    Language : English
    Encoded date : UTC 2016-01-20 21:13:09
    Tagged date : UTC 2016-01-20 21:13:25
    Color range : Limited
    Color primaries : BT.709
    Transfer characteristics : BT.709
    Matrix coefficients : BT.709
    Menus : 7,8
    Video #2
    ID : 8
    Format : JPEG
    Codec ID : jpeg
    Duration : 2h 11mn
    Bit rate mode : Variable
    Bit rate : 690 bps
    Width : 640 pixels
    Height : 266 pixels
    Display aspect ratio : 2.40:1
    Frame rate mode : Variable
    Frame rate : 0.002 fps
    Minimum frame rate : 0.001 fps
    Maximum frame rate : 0.002 fps
    Color space : YUV
    Chroma subsampling : 4:2:0
    Bit depth : 8 bits
    Compression mode : Lossy
    Bits/(Pixel*Frame) : 2.027
    Stream size : 505 KiB (0%)
    Title : Chapter Images
    Language : English
    Default : No
    Encoded date : UTC 2016-01-20 21:13:32
    Tagged date : UTC 2016-01-20 21:13:32
    Menu For : 1
    Audio #1
    ID : 2
    Format : AAC
    Format/Info : Advanced Audio Codec
    Format profile : LC
    Codec ID : 40
    Duration : 2h 11mn
    Bit rate mode : Variable
    Bit rate : 157 Kbps
    Maximum bit rate : 258 Kbps
    Channel(s) : 2 channels
    Channel positions : Front: L R
    Sampling rate : 48.0 KHz
    Frame rate : 46.875 fps (1024 spf)
    Compression mode : Lossy
    Stream size : 147 MiB (2%)
    Title : Russian Stereo
    Language : Russian
    Default : Yes
    Alternate group : 1
    Encoded date : UTC 2016-01-20 21:13:09
    Tagged date : UTC 2016-01-20 21:13:27
    Fallback From : 4
    Menus : 7
    Audio #2
    ID : 3
    Format : AAC
    Format/Info : Advanced Audio Codec
    Format profile : LC
    Codec ID : 40
    Duration : 2h 11mn
    Bit rate mode : Variable
    Bit rate : 156 Kbps
    Maximum bit rate : 258 Kbps
    Channel(s) : 2 channels
    Channel positions : Front: L R
    Sampling rate : 48.0 KHz
    Frame rate : 46.875 fps (1024 spf)
    Compression mode : Lossy
    Stream size : 146 MiB (2%)
    Title : English Stereo
    Language : English
    Default : No
    Alternate group : 1
    Encoded date : UTC 2016-01-20 21:13:09
    Tagged date : UTC 2016-01-20 21:13:27
    Fallback From : 5
    Audio #3
    ID : 4
    Format : AC-3
    Format/Info : Audio Coding 3
    Mode extension : CM (complete main)
    Format settings, Endianness : Big
    Codec ID : ac-3
    Duration : 2h 11mn
    Bit rate mode : Constant
    Bit rate : 384 Kbps
    Channel(s) : 6 channels
    Channel positions : Front: L C R, Side: L R, LFE
    Sampling rate : 48.0 KHz
    Frame rate : 31.250 fps (1536 spf)
    Bit depth : 16 bits
    Compression mode : Lossy
    Stream size : 360 MiB (4%)
    Title : Russian DD 5.1
    Language : Russian
    Default : Inherited From: 2
    Alternate group : 1
    Encoded date : UTC 2016-01-20 21:13:09
    Tagged date : UTC 2016-01-20 21:13:17
    Fallback To : 2
    Audio #4
    ID : 5
    Format : AC-3
    Format/Info : Audio Coding 3
    Mode extension : CM (complete main)
    Format settings, Endianness : Big
    Codec ID : ac-3
    Duration : 2h 11mn
    Bit rate mode : Constant
    Bit rate : 640 Kbps
    Channel(s) : 6 channels
    Channel positions : Front: L C R, Side: L R, LFE
    Sampling rate : 48.0 KHz
    Frame rate : 31.250 fps (1536 spf)
    Bit depth : 16 bits
    Compression mode : Lossy
    Stream size : 600 MiB (7%)
    Title : English DD 5.1
    Language : English
    Default : No
    Alternate group : 1
    Encoded date : UTC 2016-01-20 21:13:09
    Tagged date : UTC 2016-01-20 21:13:17
    Fallback To : 3
    Text
    ID : 6
    Format : Timed Text
    Muxing mode : sbtl
    Codec ID : tx3g
    Duration : 2h 8mn
    Bit rate mode : Variable
    Bit rate : 83 bps
    Stream size : 78.0 KiB (0%)
    Title : English full
    Language : English
    Default : Yes
    Forced : No
    Alternate group : 2
    Encoded date : UTC 2016-01-20 21:13:09
    Tagged date : UTC 2016-01-20 21:13:09
    Menu #1
    00:00:00.000 : Chapter 1
    00:10:25.416 : Chapter 2
    00:21:05.014 : Chapter 3
    00:30:57.230 : Chapter 4
    00:43:26.395 : Chapter 5
    00:50:37.243 : Chapter 6
    01:02:41.091 : Chapter 7
    01:12:30.471 : Chapter 8
    01:23:04.104 : Chapter 9
    01:33:02.786 : Chapter 10
    01:43:27.410 : Chapter 11
    01:54:15.766 : Chapter 12
    Menu #2
    ID : 7
    Codec ID : text
    Duration : 2h 11mn
    Language : English
    Encoded date : UTC 2016-01-20 21:13:27
    Tagged date : UTC 2016-01-20 21:13:27
    Menu For : 2,1
    00:00:00.000 : Chapter 1
    00:10:25.416 : Chapter 2
    00:21:05.014 : Chapter 3
    00:30:57.230 : Chapter 4
    00:43:26.395 : Chapter 5
    00:50:37.243 : Chapter 6
    01:02:41.091 : Chapter 7
    01:12:30.471 : Chapter 8
    01:23:04.104 : Chapter 9
    01:33:02.786 : Chapter 10
    01:43:27.410 : Chapter 11
    01:54:15.766 : Chapter 12
    Bit rate mode : VBR

    x264 лог

    x264 [info]: frame I:1332  Avg QP:14.64  size:238331
    x264 [info]: frame P:39109 Avg QP:17.68  size: 85070
    x264 [info]: frame B:148059 Avg QP:19.02  size: 28451
    x264 [info]: consecutive B-frames:  1.7%  3.3%  7.3% 22.5% 12.0% 24.4%  5.8% 17.8%  2.4%  0.3%  0.1%  0.8%  0.1%  0.1%  0.1%  0.2%  0.8%
    x264 [info]: mb I  I16..4: 17.9% 57.9% 24.2%
    x264 [info]: mb P  I16..4:  2.6% 14.2%  1.6%  P16..4: 39.5% 20.0% 14.5%  0.7%  0.3%    skip: 6.5%
    x264 [info]: mb B  I16..4:  0.2%  1.3%  0.1%  B16..8: 43.3% 10.8%  2.5%  direct: 7.4%  skip:34.3%  L0:45.3% L1:42.2% BI:12.6%
    x264 [info]: 8x8 transform intra:75.5% inter:49.9%
    x264 [info]: direct mvs  spatial:99.2% temporal:0.8%
    x264 [info]: coded y,uvDC,uvAC intra: 87.8% 71.9% 53.2% inter: 31.3% 27.8% 11.0%
    x264 [info]: i16 v,h,dc,p: 31% 11% 30% 27%
    x264 [info]: i8 v,h,dc,ddl,ddr,vr,hd,vl,hu: 12%  9% 15%  9% 11% 11% 11% 11% 11%
    x264 [info]: i4 v,h,dc,ddl,ddr,vr,hd,vl,hu: 14% 10% 10%  8% 13% 13% 11% 10% 11%
    x264 [info]: i8c dc,h,v,p: 53% 17% 19% 11%
    x264 [info]: Weighted P-Frames: Y:1.6% UV:1.1%
    x264 [info]: ref P L0: 52.9% 10.9% 24.8% 10.4%  1.0%  0.0%
    x264 [info]: ref B L0: 84.8% 12.8%  2.4%
    x264 [info]: ref B L1: 92.2%  7.8%
    x264 [info]: kb/s:7994.84

    Скриншоты

    -

    Релиз подготовлен для просмотра на Apple TV, iPad, iPhone, iPod Touch.
    Для просмотра данного релиза на компьютере с ОС Windows рекомендуется использовать VLC media player
    Скачать .torrent

    Скачать торрент-файл бесплатно и на максимальной скорости!

    Как скачивать? · Что такое торрент? · Рейтинг и ограничения

    !ВНИМАНИЕ!
    Сайт не распространяет и не хранит электронные версии произведений, а занимается лишь лишь предоставлением доступа к создаваемому пользователями каталогу ссылок на торрент-файлы, которые содержат только списки хеш-сумм, убедительная просьба с жалобами обращаться напрямую к пользователю. Файлы для обмена на трекере предоставлены пользователями сайта, и администрация не несёт ответственности за их содержание. Просьба не заливать файлы, защищенные авторскими правами, а также файлы нелегального содержания!


    _________________
    [Профиль] [ЛС]
    Показать сообщения:    
    Ответить на тему

    Текущее время: Сегодня, в 13:52

    Часовой пояс: GMT + 2



    Вы не можете начинать темы
    Вы не можете отвечать на сообщения
    Вы не можете редактировать свои сообщения
    Вы не можете удалять свои сообщения
    Вы не можете голосовать в опросах
    Вы не можете прикреплять файлы к сообщениям
    Вы не можете скачивать файлы