BitTorrentTracker PerecTracker.org
BitTorrentTracker PerecTracker.org
    
Регистрация  ·  Вход
 
 · 
Забыли пароль?

  • Полигон-1 (Валерий Родченко) [1994, трэш, фантастика, DVB]

    Ответить на тему
     
    Автор Сообщение

    rechyn

    Создавать темы 20-Янв-2016 17:53

           

    [Цитировать]

    Полигон-1
    Жанр: трэш, фантастика
    Год выпуска: 1994
    Продолжительность: 01:21:38
    Режиссёр: Валерий Родченко
    В ролях: Владимир Рожин, Игорь Киверин, Алеша Кожевников, Андрей Толубеев, Виктор Михайлов (II), Валерий Кравченко, Анатолий Сливников, Николай Дик, Валерий Миронов, Юрий Серов, Владимир Корнезо, Сергей Барковский, Юрий Родионов, Артем Фокин, Юрий Чернобровкин, Михаил Штейн, Г. Зайцев, Геннадий Павлов, В. Рожин
    Описание: О невероятных приключениях галлюцинирующих подростков из детской колонии, которые в результате научного эксперимента воспитателей попадают на "Дикий Запад", к космическим чудовищам, в мир фантастической природы и всевозможные политические ситуации. Кто становится ковбоем, кто - Гитлером, кто - императором Павлом I и т.д. Трое колонистов при содействии одного из воспитателей активно сопротивляются этим опытам...
    Доп. информация: Запись потока *.ts со спутника Eutelsat Hot Bird 13B/C/D, 13° в.д., ремукс в *.mkv программой VideoReDo.
    Качество видео: DVB
    Формат видео: MKV
    Видео: 704(768)x576, 25 fps, (16:9), 25,000 кадров/сек, 3566 Кбит/сек
    Аудио: MPEG Audio, 48,0 КГц, 192 Кбит/сек, 2 канала

    MediaInfo

    Общее
    Уникальный идентификатор : 319401514242765781865378205681529881059 (0xF04A7E7A78DF97C0F6C43D5CF7A381E3)
    Полное имя : D:\MPG\ПОЛИГОН 1 (inteRTV Nashe Kino).mkv
    Формат : Matroska
    Версия формата : Version 2
    Размер файла : 2,19 Гбайт
    Продолжительность : 1 ч. 21 м.
    Режим общего битрейта : Переменный
    Общий поток : 3835 Кбит/сек
    Программа кодирования : Lavf52.64.2
    Библиотека кодирования : Lavf52.64.2
    Видео
    Идентификатор : 1
    Формат : MPEG Video
    Версия формата : Version 2
    Профиль формата : Main@Main
    Параметр BVOP формата : Нет
    Параметр матрицы формата : Выборочная
    Идентификатор кодека : V_MPEG2
    Идентификатор кодека/Информация : MPEG 1 or 2 Video
    Продолжительность : 1 ч. 21 м.
    Вид битрейта : Переменный
    Битрейт : 3566 Кбит/сек
    Максимальный битрейт : 15,0 Мбит/сек
    Ширина : 704 пикселя
    Высота : 576 пикселей
    Соотношение сторон : 4:3
    Соотношение сторон в оригинале : 4:3
    Режим частоты кадров : Постоянный
    Частота кадров : 25,000 кадров/сек
    Стандарт вещания : PAL
    Цветовое пространство : YUV
    Субдискретизация насыщенности : 4:2:0
    Битовая глубина : 8 бит
    Тип развёртки : Чересстрочная
    Порядок развёртки : Верхнее поле первое
    Метод сжатия : С потерями
    Бит/(Пиксели*Кадры) : 0.352
    Временной код первого кадра : 00:00:00:00
    Оригинал временного кода : Group of pictures header
    Размер потока : 2,03 Гбайт (93%)
    Default : Да
    Forced : Нет
    Аудио
    Идентификатор : 2
    Формат : MPEG Audio
    Версия формата : Version 1
    Профиль формата : Layer 2
    Идентификатор кодека : A_MPEG/L2
    Идентификатор кодека/Подсказка : MP2
    Продолжительность : 1 ч. 21 м.
    Вид битрейта : Постоянный
    Битрейт : 192 Кбит/сек
    Каналы : 2 канала
    Частота : 48,0 КГц
    Метод сжатия : С потерями
    Задержка видео : -1 м. 5 с.
    Размер потока : 112 Мбайт (5%)
    Язык : Russian
    Default : Да
    Forced : Нет

    Скриншот c названием фильма

    Скриншоты

    Скачать .torrent

    Скачать торрент-файл бесплатно и на максимальной скорости!

    Как скачивать? · Что такое торрент? · Рейтинг и ограничения

    !ВНИМАНИЕ!
    Сайт не распространяет и не хранит электронные версии произведений, а занимается лишь лишь предоставлением доступа к создаваемому пользователями каталогу ссылок на торрент-файлы, которые содержат только списки хеш-сумм, убедительная просьба с жалобами обращаться напрямую к пользователю. Файлы для обмена на трекере предоставлены пользователями сайта, и администрация не несёт ответственности за их содержание. Просьба не заливать файлы, защищенные авторскими правами, а также файлы нелегального содержания!


    _________________
    [Профиль] [ЛС]
    Показать сообщения:    
    Ответить на тему

    Текущее время: Сегодня, в 21:22

    Часовой пояс: GMT + 2



    Вы не можете начинать темы
    Вы не можете отвечать на сообщения
    Вы не можете редактировать свои сообщения
    Вы не можете удалять свои сообщения
    Вы не можете голосовать в опросах
    Вы не можете прикреплять файлы к сообщениям
    Вы не можете скачивать файлы