BitTorrentTracker PerecTracker.org
BitTorrentTracker PerecTracker.org
    
Регистрация  ·  Вход
 
 · 
Забыли пароль?

  • Всё могу / Absolutely Anything (Терри Джонс / Terry Jones) [2015, Великобритания, США, фантастика, комедия, BDRip-AVC] Dub + Original (Eng) + Sub (Rus, Eng)

    Ответить на тему
     
    Автор Сообщение

    rechyn

    Создавать темы 20-Янв-2016 17:53

           

    [Цитировать]

    Всё могу
    Absolutely Anything
    «Суперсила и никакой ответственности!»

    Страна: Великобритания, США
    Жанр: фантастика, комедия
    Год выпуска: 2015
    Продолжительность: 01:25:30
    Перевод: Профессиональный (полное дублирование) [IPTV]
    Субтитры: русские (Forced), английские, английские (SDH)
    Оригинальная аудиодорожка: английский
    Режиссер: Терри Джонс / Terry Jones
    В ролях: Саймон Пегг, Кейт Бекинсейл, Санджив Бхаскар, Роб Риггл, Роберт Баферст, Эдди Иззард, Джоанна Ламли, Марианн Олдхэм, Эмма Пирсон, Мира Сайал, Моджо, Робин Уильямс
    Описание:
    Злобные инопланетяне, собираясь уничтожить Землю, дают ей последний шанс - наделяют учителя-неудачника Нила Кларка способностью исполнять любые желания. Он бы мог положить конец войнам или воскресить величайшие умы всех времен. Вот только как заманчиво: стать президентом США, соблазнить неприступную красотку или заставить заговорить собственного пса. Спасет ли Нил Кларк землю или устроит полный беспредел?
    Автор рипа: Stalker oK
    Сэмпл
    Качество видео: BDRip-AVC [BLUEBIRD / Blu-ray Disc / 1080p]
    Формат видео: MKV
    Видео кодек: AVC
    Аудио кодек: AC3
    Видео: 2757 Кбит/сек, 1152*482 (2,40:1), в 23,976 (24000/1001) кадра/сек, AVC
    Аудио #1: Russian, 384 Кбит/сек, 48,0 КГц, 6 каналов, AC-3
    Аудио #2: English, 448 Кбит/сек, 48,0 КГц, 6 каналов, AC-3
    Навигация по главам: есть

    MediaInfo

    Общее
    Уникальный идентификатор : 253477315887613721537985358924380188396 (0xBEB1F48DD3559CAE9C8EF793D6552EEC)
    Полное имя : M:\Rips3\Absolutely Anything\Absolutely.Anything.2015.BDRip-AVC.Dub.2.18Gb.stalkerok.new-team.mkv
    Формат : Matroska
    Версия формата : Version 4 / Version 2
    Размер файла : 2,13 Гбайт
    Продолжительность : 1 ч. 25 м.
    Общий поток : 3575 Кбит/сек
    Название фильма : Absolutely Anything (2015) (New-Team) (Rip by Stalker oK)
    Дата кодирования : UTC 2016-01-20 08:16:04
    Программа кодирования : mkvmerge v8.6.1 ('Flying') 64bit
    Библиотека кодирования : libebml v1.3.3 + libmatroska v1.4.4
    Видео
    Идентификатор : 1
    Формат : AVC
    Формат/Информация : Advanced Video Codec
    Профиль формата : High@L4.1
    Параметр CABAC формата : Да
    Параметр ReFrames формата : 14 кадров
    Идентификатор кодека : V_MPEG4/ISO/AVC
    Продолжительность : 1 ч. 25 м.
    Битрейт : 2757 Кбит/сек
    Ширина : 1152 пикселя
    Высота : 482 пикселя
    Соотношение сторон : 2,40:1
    Режим частоты кадров : Постоянный
    Частота кадров : 23,976 (24000/1001) кадра/сек
    Цветовое пространство : YUV
    Субдискретизация насыщенности : 4:2:0
    Битовая глубина : 8 бит
    Тип развёртки : Прогрессивная
    Бит/(Пиксели*Кадры) : 0.207
    Размер потока : 1,64 Гбайт (77%)
    Заголовок : Absolutely Anything (2015) (New-Team) (Rip by Stalker oK)
    Библиотека кодирования : x264 core 148 r2638kMod 7599210
    Настройки программы : cabac=1 / ref=14 / deblock=1:-3:-3 / analyse=0x3:0x133 / me=umh / subme=11 / psy=1 / fade_compensate=0.00 / psy_rd=1.00:0.10 / mixed_ref=1 / me_range=48 / chroma_me=1 / trellis=2 / 8x8dct=1 / cqm=0 / deadzone=21,11 / fast_pskip=0 / chroma_qp_offset=-3 / threads=12 / lookahead_threads=3 / sliced_threads=0 / nr=0 / decimate=0 / interlaced=0 / bluray_compat=0 / constrained_intra=0 / fgo=0 / bframes=15 / b_pyramid=2 / b_adapt=2 / b_bias=0 / direct=3 / weightb=1 / open_gop=0 / weightp=2 / keyint=240 / keyint_min=23 / scenecut=40 / intra_refresh=0 / rc_lookahead=60 / rc=2pass / mbtree=0 / bitrate=2757 / ratetol=1.0 / qcomp=0.70 / qpmin=0 / qpmax=69 / qpstep=4 / cplxblur=20.0 / qblur=0.5 / vbv_maxrate=50000 / vbv_bufsize=62500 / nal_hrd=none / filler=0 / ip_ratio=1.40 / pb_ratio=1.30 / aq=3:0.85
    Default : Да
    Forced : Нет
    Аудио #1
    Идентификатор : 2
    Формат : AC-3
    Формат/Информация : Audio Coding 3
    Расширение режима : CM (complete main)
    Параметр Endianness формата : Big
    Идентификатор кодека : A_AC3
    Продолжительность : 1 ч. 25 м.
    Вид битрейта : Постоянный
    Битрейт : 384 Кбит/сек
    Каналы : 6 каналов
    Расположение каналов : Front: L C R, Side: L R, LFE
    Частота : 48,0 КГц
    Частота кадров : 31,250 кадров/сек (1536 spf)
    Метод сжатия : С потерями
    Размер потока : 235 Мбайт (11%)
    Язык : Russian
    Default : Да
    Forced : Нет
    Аудио #2
    Идентификатор : 3
    Формат : AC-3
    Формат/Информация : Audio Coding 3
    Расширение режима : CM (complete main)
    Параметр Endianness формата : Big
    Идентификатор кодека : A_AC3
    Продолжительность : 1 ч. 25 м.
    Вид битрейта : Постоянный
    Битрейт : 448 Кбит/сек
    Каналы : 6 каналов
    Расположение каналов : Front: L C R, Side: L R, LFE
    Частота : 48,0 КГц
    Частота кадров : 31,250 кадров/сек (1536 spf)
    Метод сжатия : С потерями
    Размер потока : 274 Мбайт (13%)
    Язык : English
    Default : Нет
    Forced : Нет
    Текст #1
    Идентификатор : 4
    Формат : UTF-8
    Идентификатор кодека : S_TEXT/UTF8
    Идентификатор кодека/Информация : UTF-8 Plain Text
    Продолжительность : 1 ч. 11 м.
    Битрейт : 1 бит/сек
    Count of elements : 14
    Размер потока : 863 байт (0%)
    Заголовок : Forced
    Язык : Russian
    Default : Да
    Forced : Нет
    Текст #2
    Идентификатор : 5
    Формат : UTF-8
    Идентификатор кодека : S_TEXT/UTF8
    Идентификатор кодека/Информация : UTF-8 Plain Text
    Продолжительность : 1 ч. 22 м.
    Битрейт : 74 бит/сек
    Count of elements : 1228
    Размер потока : 45,3 Кбайт (0%)
    Язык : English
    Default : Нет
    Forced : Нет
    Текст #3
    Идентификатор : 6
    Формат : UTF-8
    Идентификатор кодека : S_TEXT/UTF8
    Идентификатор кодека/Информация : UTF-8 Plain Text
    Продолжительность : 1 ч. 22 м.
    Битрейт : 82 бит/сек
    Count of elements : 1362
    Размер потока : 49,8 Кбайт (0%)
    Заголовок : SDH
    Язык : English
    Default : Нет
    Forced : Нет
    Текст #4
    Идентификатор : 7
    Формат : UTF-8
    Идентификатор кодека : S_TEXT/UTF8
    Идентификатор кодека/Информация : UTF-8 Plain Text
    Продолжительность : 1 ч. 22 м.
    Битрейт : 97 бит/сек
    Count of elements : 1364
    Размер потока : 59,1 Кбайт (0%)
    Заголовок : SDH
    Язык : English
    Default : Нет
    Forced : Нет
    Меню
    00:00:00.000 : en:Chapter 1
    00:03:10.940 : en:Chapter 2
    00:08:13.826 : en:Chapter 3
    00:14:41.630 : en:Chapter 4
    00:32:59.102 : en:Chapter 5
    00:40:15.579 : en:Chapter 6
    00:53:42.886 : en:Chapter 7
    01:02:15.815 : en:Chapter 8
    01:06:17.682 : en:Chapter 9
    01:11:51.098 : en:Chapter 10
    01:14:56.116 : en:Chapter 11
    01:21:25.547 : en:Chapter 12

    Скриншоты

    Скачать .torrent

    Скачать торрент-файл бесплатно и на максимальной скорости!

    Как скачивать? · Что такое торрент? · Рейтинг и ограничения

    !ВНИМАНИЕ!
    Сайт не распространяет и не хранит электронные версии произведений, а занимается лишь лишь предоставлением доступа к создаваемому пользователями каталогу ссылок на торрент-файлы, которые содержат только списки хеш-сумм, убедительная просьба с жалобами обращаться напрямую к пользователю. Файлы для обмена на трекере предоставлены пользователями сайта, и администрация не несёт ответственности за их содержание. Просьба не заливать файлы, защищенные авторскими правами, а также файлы нелегального содержания!


    _________________
    [Профиль] [ЛС]
    Показать сообщения:    
    Ответить на тему

    Текущее время: Сегодня, в 20:50

    Часовой пояс: GMT + 2



    Вы не можете начинать темы
    Вы не можете отвечать на сообщения
    Вы не можете редактировать свои сообщения
    Вы не можете удалять свои сообщения
    Вы не можете голосовать в опросах
    Вы не можете прикреплять файлы к сообщениям
    Вы не можете скачивать файлы