Register  ·  Log in
Forgot password?

  • Экспериментатор / Experimenter (Майкл Алмерейда / Michael Almereyda) [2015, США, драма, биография, история, BDRip] DVO (Ozz tv)

    Reply to topic
    Author Message


    Post 20-Jan-2016 14:41



    Экспериментатор / Experimenter
    «Illusion sets the stage. Deception reveals the truth»
    -Страна: США
    Студия: BB Film Productions, FJ Productions, Intrinsic Value Films, Jeff Rice Films
    Жанр: драма, биография, история
    Год выпуска: 2015
    Продолжительность: 01:38:04
    Перевод: Профессиональный (двухголосый закадровый) Ozz tv
    Cубтитры: нет
    Оригинальная аудиодорожка: нет
    Режиссер: Майкл Алмерейда / Michael Almereyda
    В ролях: Вайнона Райдер, Тэрин Мэннинг, Келлан Латс, Антон Ельчин, Джон Легуизамо, Питер Сарсгаард, Лори Сингер, Деннис Хейсбёрт, Энтони Эдвардс, Вонди Куртис-Холл
    Описание: Знаменитый психолог Стенли Милграм в 1961 году провел ряд радикальных поведенческих экспериментов, в процессе которых проверялась готовность обычных людей подчиняться власти.
    Озвучка релиз-группы:
    Перевод: Василий Мерзляков
    Роли озвучивали: Елена Каламурза и Алексей Серёгин

    Тип релиза: BDRip [Neon_project] (исх. Experimenter.2015.BluRay.1080p.DTS-HD.MA.5.1.AVC.REMUX-FraMeSToR)
    Контейнер: AVI
    Видео: 656x368 (1.78:1), 23.976 fps, XviD build 50 ~924 kbps avg, 0.16 bit/pixel
    Аудио: 48 kHz, MPEG Layer 3, 2 ch, ~128.00 kbps avg

    рейтинг MPAA: детям до 13 лет просмотр не желателен


    \Experimenter.2015.BDRip.avi General Complete name : \Experimenter.2015.BDRip.avi Format : AVI Format/Info : Audio Video Interleave File size : 745 MiB Duration : 1h 38mn Overall bit rate : 1 062 Kbps Movie name : Экспериментатор / Experimenter Director : Майкл Алмерейда / Michael Almereyda Genre : драма, биография, история Writing application : VirtualDubMod (build 2540/release) Original source form/Name : фильм Comment : Neon_project Video #0 ID : 0 Format : MPEG-4 Visual Format profile : Advanced Simple@L5 Format settings, BVOP : 1 Format settings, QPel : No Format settings, GMC : No warppoints Format settings, Matrix : Custom Codec ID : XVID Codec ID/Hint : XviD Duration : 1h 38mn Bit rate : 925 Kbps Width : 656 pixels Height : 368 pixels Display aspect ratio : 16:9 Frame rate : 23.976 fps Color space : YUV Chroma subsampling : 4:2:0 Bit depth : 8 bits Scan type : Progressive Compression mode : Lossy Bits/(Pixel*Frame) : 0.160 Stream size : 649 MiB (87%) Writing library : XviD 1.2.1 (UTC 2008-12-04) Audio #1 ID : 1 Format : MPEG Audio Format version : Version 1 Format profile : Layer 3 Codec ID : 55 Codec ID/Hint : MP3 Duration : 1h 38mn Bit rate mode : Constant Bit rate : 128 Kbps Channel(s) : 2 channels Sampling rate : 48.0 KHz Compression mode : Lossy Stream size : 89.8 MiB (12%) Alignment : Aligned on interleaves Interleave, duration : 42 ms (1.00 video frame) Interleave, preload duration : 504 ms Writing library : LAME3.99r Encoding settings : -m s -V 4 -q 0 -lowpass 17 -b 128

    Скриншот c названием фильма


    Download .torrent

    Download free and at maximum speed!

    How to Download? · What is a torrent? · Ratings and Limitations

    The site does not extend and does not store electronic(digital) versions of products, and only gives access to a reference catalogue created by users on torrent-files which contain only lists of the hash-sums, the earnest entreaty, with complaints(abuse) to access directly to the user. Files for an exchange on tracker are given by users of a site, and the administration does not bear the responsibility for their maintenance. The request to not fill in the files protected by copyrights, and also files of the illegal maintenance!

    [Profile] [PM]
    Display posts from previous:    
    Reply to topic

    The time now is: Today 14:21

    All times are GMT + 3 Hours

    You cannot post new topics in this forum
    You cannot reply to topics in this forum
    You cannot edit your posts in this forum
    You cannot delete your posts in this forum
    You cannot vote in polls in this forum
    You cannot attach files in this forum
    You cannot download files in this forum