BitTorrentTracker PerecTracker.org
BitTorrentTracker PerecTracker.org
    
Регистрация  ·  Вход
 
 · 
Забыли пароль?

  • Быстрый и Мёртвый / Меткий и Мёртвый / Быстрые и Мёртвые / The Quick and the Dead (Роберт Дэй / Robert Day) [1987, США, вестерн, DVDRip] VO + Original Eng

    Ответить на тему
     
    Автор Сообщение

    Columb

    Создавать темы 22-Дек-2013 15:55

           

    [Цитировать]

    Быстрый и Мёртвый / The Quick and the Dead
    Страна: США
    Жанр: вестерн
    Год выпуска: 1987 телефильм
    Продолжительность: 01:30:09
    Перевод: Одноголосый закадровый
    Cубтитры: нет
    Оригинальная аудиодорожка: английский
    Режиссер: Роберт Дэй / Robert Day
    В ролях: Сэм Эллиотт / Sam Elliott... Con Vallian
    Том Конти / Tom Conti... Duncan McKaskel
    Кейт Кэпшоу / Kate Capshaw... Susanna McKaskel
    Кенни Моррисон / Kenny Morrison... Tom McKaskel
    Мэтт Кларк / Matt Clark... Doc Shabitt
    Пэтрик Килпэтрик / Patrick Kilpatrick... The Ute
    Джерри Поттер / Jerry Potter... Red Hayle
    Билли Стритер / Billy Streater... Ike Mantle
    Дэль Шоурс / Del Shores... Purdy Mantle
    Р.Л. Толберт / R.L. Tolbert... Johnny Dobbs
    Описание: Странствуя по Дикому Западу , семья ищет место для обустройства жизни. Одинокий ковбой помогает им защищаться от бандитов.
    ИЗ СЕРИИ ЛЮБИМЫЕ ПЕРЕВОДЫ
    Сэмпл: http://multi-up.com/934581
    Качество видео: DVDRip
    Формат видео: AVI
    Видео: 704x400 (1.76:1), 23.976 fps, XviD build 50 ~1775 kbps avg, 0.26 bit/pixel - за исходник спасибо CrowG
    Аудио 1: 48 kHz, AC3 Dolby Digital, 2/0 (L,R) ch, ~192 kbps - перевод оцифрован и синхронизирован мной с коллекционной VHS
    Аудио 2: 48 kHz, AC3 Dolby Digital, 2/0 (L,R) ch, ~192 kbps - english

    MediaInfo

    Формат : AVI
    Формат/Информация : Audio Video Interleave
    Размер файла : 1,37 Гбайт
    Продолжительность : 1 ч. 29 м.
    Общий поток : 2175 Кбит/сек
    Название фильма : The Quick and the Dead (1987)
    Программа кодирования : VirtualDubMod 1.5.10.3 | www.virtualdub-fr.org || (build 2550/release)
    Библиотека кодирования : VirtualDubMod build 2550/release
    Правообладатель : sasikainen
    Видео
    Идентификатор : 0
    Формат : MPEG-4 Visual
    Профиль формата : Advanced Simple@L5
    Параметр BVOP формата : 1
    Параметр QPel формата : Нет
    Параметр GMC формата : Без точки перехода
    Параметр матрицы формата : Default (H.263)
    Идентификатор кодека : XVID
    Идентификатор кодека/Подсказка : XviD
    Продолжительность : 1 ч. 29 м.
    Битрейт : 1776 Кбит/сек
    Ширина : 704 пикселя
    Высота : 400 пикселей
    Соотношение сторон : 16:9
    Частота кадров : 23,976 кадра/сек
    Цветовое пространство : YUV
    Субдискретизация насыщенности : 4:2:0
    Битовая глубина : 8 бит
    Тип развёртки : Прогрессивная
    Метод сжатия : С потерями
    Бит/(Пиксели*Кадры) : 0.263
    Размер потока : 1,12 Гбайт (82%)
    Библиотека кодирования : XviD 1.2.1 (UTC 2008-12-04)
    Аудио #1
    Идентификатор : 1
    Формат : AC-3
    Формат/Информация : Audio Coding 3
    Расширение режима : CM (complete main)
    Параметр Endianness формата : Big
    Идентификатор кодека : 2000
    Продолжительность : 1 ч. 29 м.
    Вид битрейта : Постоянный
    Битрейт : 192 Кбит/сек
    Каналы : 2 канала
    Расположение каналов : Front: L R
    Частота : 48,0 КГц
    Битовая глубина : 16 бит
    Метод сжатия : С потерями
    Размер потока : 124 Мбайт (9%)
    Выравнивание : Разделение по промежуткам
    Продолжительность промежутка : 42 мс. (1,00 видеокадр)
    Время предзагрузки промежутка : 500 мс.
    Заголовок : russian
    Аудио #2
    Идентификатор : 2
    Формат : AC-3
    Формат/Информация : Audio Coding 3
    Профиль формата : Dolby Digital
    Расширение режима : CM (complete main)
    Параметр Endianness формата : Big
    Идентификатор кодека : 2000
    Продолжительность : 1 ч. 29 м.
    Вид битрейта : Постоянный
    Битрейт : 192 Кбит/сек
    Каналы : 2 канала
    Расположение каналов : Front: L R
    Частота : 48,0 КГц
    Битовая глубина : 16 бит
    Метод сжатия : С потерями
    Размер потока : 124 Мбайт (9%)
    Выравнивание : Разделение по промежуткам
    Продолжительность промежутка : 42 мс. (1,00 видеокадр)
    Время предзагрузки промежутка : 500 мс.
    Заголовок : english

    Скриншоты

    Скачать .torrent

    Скачать торрент-файл бесплатно и на максимальной скорости!

    Как скачивать? · Что такое торрент? · Рейтинг и ограничения

    !ВНИМАНИЕ!
    Сайт не распространяет и не хранит электронные версии произведений, а занимается лишь лишь предоставлением доступа к создаваемому пользователями каталогу ссылок на торрент-файлы, которые содержат только списки хеш-сумм, убедительная просьба с жалобами обращаться напрямую к пользователю. Файлы для обмена на трекере предоставлены пользователями сайта, и администрация не несёт ответственности за их содержание. Просьба не заливать файлы, защищенные авторскими правами, а также файлы нелегального содержания!

    [Профиль] [ЛС]
    Показать сообщения:    
    Ответить на тему

    Текущее время: Сегодня, в 14:40

    Часовой пояс: GMT + 2



    Вы не можете начинать темы
    Вы не можете отвечать на сообщения
    Вы не можете редактировать свои сообщения
    Вы не можете удалять свои сообщения
    Вы не можете голосовать в опросах
    Вы не можете прикреплять файлы к сообщениям
    Вы не можете скачивать файлы