Register  ·  Log in
Forgot password?

  • Экспериментатор / Experimenter (Майкл Алмерейда / Michael Almereyda) [2015, США, драма, биография, история, BDRip] DVO (Ozz tv) + 2xSub (Rus, Eng) + Original Eng

    Reply to topic
    Author Message


    Post 20-Jan-2016 10:29



    Экспериментатор / Experimenter
    «Illusion sets the stage. Deception reveals the truth»
    -Страна: США
    Студия: BB Film Productions, FJ Productions, Intrinsic Value Films, Jeff Rice Films
    Жанр: драма, биография, история
    Год выпуска: 2015
    Продолжительность: 01:38:04
    Перевод: Профессиональный (двухголосый закадровый) Ozz tv
    Cубтитры: русские, английские
    Оригинальная аудиодорожка: английская
    Режиссер: Майкл Алмерейда / Michael Almereyda
    В ролях: Вайнона Райдер, Тэрин Мэннинг, Келлан Латс, Антон Ельчин, Джон Легуизамо, Питер Сарсгаард, Лори Сингер, Деннис Хейсбёрт, Энтони Эдвардс, Вонди Куртис-Холл
    Описание: Знаменитый психолог Стенли Милграм в 1961 году провел ряд радикальных поведенческих экспериментов, в процессе которых проверялась готовность обычных людей подчиняться власти.
    Озвучка релиз-группы:
    Перевод: Василий Мерзляков
    Роли озвучивали: Елена Каламурза и Алексей Серёгин

    Тип релиза: BDRip [Neon_project] (исх. Experimenter.2015.BluRay.1080p.DTS-HD.MA.5.1.AVC.REMUX-FraMeSToR)
    Контейнер: AVI
    Видео: 704x400 (1.76:1), 23.976 fps, XviD build 50 ~1928 kbps avg, 0.28 bit/pixel
    Аудио 1: 48 kHz, AC3 Dolby Digital, 2/0 (L,R) ch, ~192 kbps (русская)
    Аудио 2: 48 kHz, AC3 Dolby Digital, 3/2 (L,C,R,l,r) + LFE ch, ~448 kbps (английская) отдельно
    Формат субтитров: softsub (SRT)

    рейтинг MPAA: детям до 13 лет просмотр не желателен


    \Experimenter.2015.BDRip\Experimenter.2015.BDRip.avi General Complete name : \Experimenter.2015.BDRip\Experimenter.2015.BDRip.avi Format : AVI Format/Info : Audio Video Interleave File size : 1.46 GiB Duration : 1h 38mn Overall bit rate : 2 130 Kbps Movie name : Экспериментатор / Experimenter Director : Майкл Алмерейда / Michael Almereyda Genre : драма, биография, история Writing application : VirtualDubMod (build 2540/release) Original source form/Name : фильм Copyright : Neon_project Video #0 ID : 0 Format : MPEG-4 Visual Format profile : Advanced Simple@L5 Format settings, BVOP : 1 Format settings, QPel : No Format settings, GMC : No warppoints Format settings, Matrix : Custom Codec ID : XVID Codec ID/Hint : XviD Duration : 1h 38mn Bit rate : 1 929 Kbps Width : 704 pixels Height : 400 pixels Display aspect ratio : 16:9 Frame rate : 23.976 fps Color space : YUV Chroma subsampling : 4:2:0 Bit depth : 8 bits Scan type : Progressive Compression mode : Lossy Bits/(Pixel*Frame) : 0.286 Stream size : 1.32 GiB (91%) Writing library : XviD 1.2.1 (UTC 2008-12-04) Audio #1 ID : 1 Format : AC-3 Format/Info : Audio Coding 3 Mode extension : CM (complete main) Format settings, Endianness : Big Codec ID : 2000 Duration : 1h 38mn Bit rate mode : Constant Bit rate : 192 Kbps Channel(s) : 2 channels Channel positions : Front: L R Sampling rate : 48.0 KHz Bit depth : 16 bits Compression mode : Lossy Stream size : 135 MiB (9%) Alignment : Split accross interleaves Interleave, duration : 42 ms (1.00 video frame) Interleave, preload duration : 500 ms

    Скриншот c названием фильма


    Download .torrent

    Download free and at maximum speed!

    How to Download? · What is a torrent? · Ratings and Limitations

    The site does not extend and does not store electronic(digital) versions of products, and only gives access to a reference catalogue created by users on torrent-files which contain only lists of the hash-sums, the earnest entreaty, with complaints(abuse) to access directly to the user. Files for an exchange on tracker are given by users of a site, and the administration does not bear the responsibility for their maintenance. The request to not fill in the files protected by copyrights, and also files of the illegal maintenance!

    [Profile] [PM]
    Display posts from previous:    
    Reply to topic

    The time now is: Today 01:16

    All times are GMT + 3 Hours

    You cannot post new topics in this forum
    You cannot reply to topics in this forum
    You cannot edit your posts in this forum
    You cannot delete your posts in this forum
    You cannot vote in polls in this forum
    You cannot attach files in this forum
    You cannot download files in this forum