BitTorrentTracker PerecTracker.org
BitTorrentTracker PerecTracker.org
    
Регистрация  ·  Вход
 
 · 
Забыли пароль?

  • Битва на Косовом поле / Boj na Kosovu / Kosovska Bitka / The Battle of Kosovo (Здравко Шотра / Здравко Шотра) [1989 г., Югославия, Исторический, DVDRip] VO + DVO + Sub (Rus)

    Ответить на тему
     
    Автор Сообщение

    Columb

    Создавать темы 22-Дек-2013 15:53

           

    [Цитировать]

    Битва на Косовом поле / Boj na Kosovu / Kosovska Bitka / The Battle of Kosovo
    Год выпуска: 1989
    Страна: Югославия
    Жанр: Исторический
    Продолжительность: 01:46:55
    Перевод: Любительский (одноголосый закадровый) - автор неизвестен
    Перевод 2:Любительский (двухголосый закадровый) - den904 & DeadSno
    Субтитры: русские (sneg190)
    Оригинальная аудиодорожка: нет
    Режиссер: З. Шотра
    В ролях: Милош Жутич, Горица Попович, Миодраг Радованович, Воислав Брайович, Танасий Узунович, Жарко Лаушевич, Милан Гутович, Светозар Цветкович, Люба Тадич, Бранислав Лечич, Катарина Гойкович, Предраг Лакович, Неда Америч, Тихомир Эрсик
    Описание: 28 июня на Видовдан (День Святого Вида) 1389 года на Косовом поле в Южной Сербии произошло решающее сражение между объединенными войсками сербов и боснийцев под предводительством князя Лазаря и турецкой армией, возглавляемой султаном Мурадом Первым.
    На Косовом поле сербы приняли неравный бой с превосходящими силами турок, и главным был именно их выбор - свободное судьбоносное решение бороться, но не предавать. Косовская битва, раскрывшая евангельскую этику сербского народа, переживается как торжество мучеников, но никогда - как поражение.
    Субтиры скачаны у пользователя sneg190.
    Сэмпл (одноголоска): http://www.sendspace.com/file/t000ys
    Сэмпл (двухголоска): http://www.sendspace.com/file/by2uwu
    Качество: DVDRip
    Формат: AVI
    Видео кодек: XviD
    Аудио кодек: MP3
    Видео: 1699 Кбит/сек, 688*512 (4:3), в 25,000 кадров/сек, MPEG-4 Visual (XviD) (Advanced Simple@L5) (BVOP2)
    Аудио: Русский, 128 Кбит/сек, 48,0 КГц, 2 канала, MP3
    Аудио 2: Русский, 128 Кбит/сек, 48,0 КГц, 2 канала, MP3

    Media Info

    ОбщееПолное имя : D:\MONAR.RU\Видео\Художественные фильмы\Зарубежное кино\Битва на Косовом поле (1989) DVDRip\Битва на Косовом поле (1989).aviФормат : AVIФормат/Информация : Audio Video InterleaveРазмер файла : 1,47 ГбайтПродолжительность : 1 ч. 46 м.Общий поток : 1970 Кбит/сек
    ВидеоИдентификатор : 0Формат : MPEG-4 VisualПрофиль формата : Advanced Simple@L5Параметр BVOP формата : 2Параметр QPel формата : НетПараметр GMC формата : Без точки переходаПараметр матрицы формата : Default (MPEG)Идентификатор кодека : XVIDИдентификатор кодека/Подсказка : XviDПродолжительность : 1 ч. 46 м.Битрейт : 1699 Кбит/секШирина : 688 пикселейВысота : 512 пикселейСоотношение сторон : 4:3Частота кадров : 25,000 кадров/секЦветовое пространство : YUVСубдискретизация насыщенности : 4:2:0Битовая глубина : 8 битТип развёртки : ПрогрессивнаяМетод сжатия : С потерямиБит/(Пиксели*Кадры) : 0.193Размер потока : 1,27 Гбайт (86%)Библиотека кодирования : XviD 1.2.1 (UTC 2008-12-04)
    Аудио #1Идентификатор : 1Формат : MPEG AudioВерсия формата : Version 1Профиль формата : Layer 3Идентификатор кодека : 55Идентификатор кодека/Подсказка : MP3Продолжительность : 1 ч. 46 м.Продолжительность оригинала : 1 ч. 46 м.Вид битрейта : ПостоянныйБитрейт : 128 Кбит/секКаналы : 2 каналаЧастота : 48,0 КГцМетод сжатия : С потерямиРазмер потока : 97,9 Мбайт (6%)Выравнивание : Соединение по промежуткамПродолжительность промежутка : 40 мс. (1,00 видеокадр)
    Аудио #2Идентификатор : 2Формат : MPEG AudioВерсия формата : Version 1Профиль формата : Layer 3Идентификатор кодека : 55Идентификатор кодека/Подсказка : MP3Продолжительность : 1 ч. 46 м.Продолжительность оригинала : 1 ч. 46 м.Вид битрейта : ПостоянныйБитрейт : 128 Кбит/секКаналы : 2 каналаЧастота : 48,0 КГцМетод сжатия : С потерямиРазмер потока : 97,9 Мбайт (6%)Выравнивание : Соединение по промежуткамПродолжительность промежутка : 40 мс. (1,00 видеокадр)

    Скриншоты

    10.08.13 Торрент-файл перезалит. Раздача заменена рипом с одноголосым переводом.
    22.12.13 Торрент-файл перезалит. Добавлена аудиодорога с двухголосым переводом.
    Скачать .torrent

    Скачать торрент-файл бесплатно и на максимальной скорости!

    Как скачивать? · Что такое торрент? · Рейтинг и ограничения

    !ВНИМАНИЕ!
    Сайт не распространяет и не хранит электронные версии произведений, а занимается лишь лишь предоставлением доступа к создаваемому пользователями каталогу ссылок на торрент-файлы, которые содержат только списки хеш-сумм, убедительная просьба с жалобами обращаться напрямую к пользователю. Файлы для обмена на трекере предоставлены пользователями сайта, и администрация не несёт ответственности за их содержание. Просьба не заливать файлы, защищенные авторскими правами, а также файлы нелегального содержания!

    [Профиль] [ЛС]
    Показать сообщения:    
    Ответить на тему

    Текущее время: Сегодня, в 10:06

    Часовой пояс: GMT + 2



    Вы не можете начинать темы
    Вы не можете отвечать на сообщения
    Вы не можете редактировать свои сообщения
    Вы не можете удалять свои сообщения
    Вы не можете голосовать в опросах
    Вы не можете прикреплять файлы к сообщениям
    Вы не можете скачивать файлы