Register  ·  Log in
Forgot password?

  • Самое главное (Александр Ефремов) [2015, мелодрама, HDTVRip]

    Reply to topic
    Author Message


    Post 19-Jan-2016 22:03



    Самое главное
    Жанр: мелодрама
    Год выпуска: 2015
    Продолжительность: 01:33:27
    Режиссер: Александр Ефремов
    В ролях: Олеся Грибок, Борис Хвошнянский, Алёна Ивченко, Павел Яскевич, Иван Стрельцов, Юлианна Михневич, Тамара Миронова, Полина Стефанович, Алексей Юцкевич
    Описание: Главная героиня Даша живет в небольшом городе вместе с бабушкой. Родных, кроме старенькой бабушки, у Даши нет — мама умерла, а отца девушка никогда не знала и считала погибшим. Но однажды бабушка решает открыть Дарье тайну ее рождения — ее отец жив и живет в Москве, не подозревая, что у него есть взрослая дочь. Даша решает поехать в столицу и найти своего папу. Им оказывается импозантный мужчина Владимир Бестужев — большой любитель женщин.
    А самое главное — он, кажется, вовсе не рад тому, что Даша — его дочь.

    Качество видео: HDTVRip
    Формат видео: AVI
    Видео: 720x384 (1.88:1), 25 fps, XviD build 73 ~1892 kbps avg, 0.27 bit/pixel
    Аудио: 48 kHz, AC3 Dolby Digital, 2/0 (L,R) ch, ~192 kbps


    Complete name : E:\Самое главное 2015 HDTVRip.avi
    Format : AVI
    Format/Info : Audio Video Interleave
    File size : 1.37 GiB
    Duration : 1h 33mn
    Overall bit rate : 2 094 Kbps
    Writing application : VirtualDubMod | || (build 2550/release)
    Writing library : VirtualDubMod build 2550/release
    ID : 0
    Format : MPEG-4 Visual
    Format profile : Advanced Simple@L5
    Format settings, BVOP : 1
    Format settings, QPel : No
    Format settings, GMC : No warppoints
    Format settings, Matrix : Custom
    Codec ID : XVID
    Codec ID/Hint : XviD
    Duration : 1h 33mn
    Bit rate : 1 892 Kbps
    Width : 720 pixels
    Height : 384 pixels
    Display aspect ratio : 1.85:1
    Frame rate : 25.000 fps
    Color space : YUV
    Chroma subsampling : 4:2:0
    Bit depth : 8 bits
    Scan type : Progressive
    Compression mode : Lossy
    Bits/(Pixel*Frame) : 0.274
    Stream size : 1.24 GiB (90%)
    Writing library : XviD 73
    ID : 1
    Format : AC-3
    Format/Info : Audio Coding 3
    Mode extension : CM (complete main)
    Format settings, Endianness : Big
    Codec ID : 2000
    Duration : 1h 33mn
    Bit rate mode : Constant
    Bit rate : 192 Kbps
    Channel count : 2 channels
    Channel positions : Front: L R
    Sampling rate : 48.0 KHz
    Bit depth : 16 bits
    Compression mode : Lossy
    Stream size : 128 MiB (9%)
    Alignment : Split accross interleaves
    Interleave, duration : 40 ms (1.00 video frame)
    Interleave, preload duration : 500 ms

    Скриншот c названием фильма


    Download .torrent

    Download free and at maximum speed!

    How to Download? · What is a torrent? · Ratings and Limitations

    The site does not extend and does not store electronic(digital) versions of products, and only gives access to a reference catalogue created by users on torrent-files which contain only lists of the hash-sums, the earnest entreaty, with complaints(abuse) to access directly to the user. Files for an exchange on tracker are given by users of a site, and the administration does not bear the responsibility for their maintenance. The request to not fill in the files protected by copyrights, and also files of the illegal maintenance!

    [Profile] [PM]
    Display posts from previous:    
    Reply to topic

    The time now is: Today 04:48

    All times are GMT + 3 Hours

    You cannot post new topics in this forum
    You cannot reply to topics in this forum
    You cannot edit your posts in this forum
    You cannot delete your posts in this forum
    You cannot vote in polls in this forum
    You cannot attach files in this forum
    You cannot download files in this forum