BitTorrentTracker PerecTracker.org
BitTorrentTracker PerecTracker.org
    
Регистрация  ·  Вход
 
 · 
Забыли пароль?

  • Иррациональный человек / Irrational Man (Вуди Аллен / Woody Allen ) [2015, США, Драма, детектив, BDRip, HD (720p)] DUB + Original + sub (eng)

    Ответить на тему
     
    Автор Сообщение

    Flirldrerve

    Создавать темы 19-Янв-2016 21:02

           

    [Цитировать]

    Иррациональный человек / Irrational Man
    -
    6.765 / 10 6.70 / 10
    -Год выпуска: 2015
    Страна: США
    Жанр: Драма, детектив
    Продолжительность: 01:34:50
    Перевод: Дублированный (iTunes)
    Оригинальная аудиодорожка: Есть
    Cубтитры: Английские
    Режиссёр: Вуди Аллен
    Сценарий: Вуди Аллен
    Продюсер: Летти Аронсон, Стивен Тененбаум, Эдвард Уолсон
    Оператор: Дариус Хонджи
    Художник: Карл Спрэг, Сьюзи Бензингер, Дженнифер Энджел
    Монтаж: Алиса Лепселтер
    В ролях: Хоакин Феникс, Эмма Стоун, Джейми Блэкли, Паркер Поузи, Джо Степлтон, Нэнси Кэрролл, Эллисон Галлерани, Бригитт Ланди-Пейн, Кэтлин Семер, Бетси Айдем
    Сборы в США: $4 030 360
    Сборы в России: $715 321
    Мировая премьера: 15 мая 2015
    Премьера (РФ): 13 августа 2015, «Централ Партнершип»
    Описание: Профессор философии Эйб Лукас опустошен: он не видит в своей жизни ни радости, ни смысла.
    На лето Эйб приезжает преподавать в небольшой колледж, где у него завязываются отношения с двумя очень разными женщинами. Рита, его новая коллега, воображает, что именно он вызволит ее из несчастливого брака. А Джилл, его лучшая студентка, становится ему ближайшим другом. Но девушку неодолимо притягивают мятущаяся творческая натура Эйба и его загадочное прошлое, и она все больше отдаляется от своего бойфренда, Роя…
    Все меняет невольно подслушанный Эйбом и Джилл разговор, после которого Эйб, стряхнув с себя равнодушие и отчаяние, решает действовать… Абсолютно иррационально.-Качество исходника: Blu-Ray (BlueBird)
    Качество: BDRip
    Тип: HD (720p)
    Контейнер: M4V
    Видео: H.264, 1280x528, 2.40:1, 3 500 Kbps, 23.976 (24000/1001) fps
    Аудио 1: Русский/Дублированный (iTunes), AAC / 2.0 / 157 Kbps / 48.0 KHz
    Аудио 2: Английский/Оригинальная дорожка , AAC / 2.0 / 157 Kbps / 48.0 KHz
    Аудио 3: Русский/Дублированный (iTunes), AC-3 / 5.1 / 384 Kbps / 48.0 KHz
    Аудио 4: Английский/Оригинальная дорожка , AC-3 / 5.1 / 640 Kbps / 48.0 KHz
    Субтитры: Английские полные
    -

    iTunes Meta Tags

    Sort Name: Irrational Man
    XID: Apple:vendor_id:2015-840992
    contentID: 1019388303
    Copyright: © 2015 Gravier Productions, Inc. All rights reserved.
    Screenwriters: Вуди Аллен
    Producers: Летти Аронсон, Стивен Тененбаум, Эдвард Уолсон
    Director: Вуди Аллен
    Cast: Хоакин Феникс, Эмма Стоун, Джейми Блэкли, Паркер Поузи, Джо Степлтон, Нэнси Кэрролл, Эллисон Галлерани, Бригитт Ланди-Пейн, Кэтлин Семер, Бетси Айдем, Станислав Тикунов
    Studio: Entertainment One
    Rating: 17
    Long Description: Профессор философии Эйб Лукас опустошен: он не видит в своей жизни ни радости, ни смысла.
    На лето Эйб приезжает преподавать в небольшой колледж, где у него завязываются отношения с двумя очень разными женщинами. Рита, его новая коллега, воображает, что именно он вызволит ее из несчастливого брака. А Джилл, его лучшая студентка, становится ему ближайшим другом. Но девушку неодолимо притягивают мятущаяся творческая натура Эйба и его загадочное прошлое, и она все больше отдаляется от своего бойфренда, Роя...
    Все меняет невольно подслушанный Эйбом и Джилл разговор, после которого Эйб, стряхнув с себя равнодушие и отчаяние, решает действовать... Абсолютно иррационально.
    Description: Профессор философии Эйб Лукас опустошен: он не видит в своей жизни ни радости, ни смысла.
    На лето Эйб приезжает преподавать в небольшой колледж, где у него завязываются отношения с двумя очень разными женщинами.
    Release Date: 2015-05-15T08:00:00Z
    Genre: Drama
    Artist: Woody Allen
    Name: Irrational Man

    MediaInfo

    General
    Complete name : /Users/imac/HandBrake/Irrational Man (720p HD).m4v
    Format : MPEG-4
    Codec ID : M4V  (M4V /M4A /mp42/isom)
    File size : 3.21 GiB
    Duration : 1h 34mn
    Overall bit rate mode : Variable
    Overall bit rate : 4 844 Kbps
    Movie name : Irrational Man
    Performer : Woody Allen
    Director : Вуди Аллен
    Actor : Хоакин Феникс / Эмма Стоун / Джейми Блэкли / Паркер Поузи / Джо Степлтон / Нэнси Кэрролл / Эллисон Галлерани / Бригитт Ланди-Пейн / Кэтлин Семер / Бетси Айдем / Станислав Тикунов
    Screenplay by : Вуди Аллен
    Producer : Летти Аронсон / Стивен Тененбаум / Эдвард Уолсон
    Production studio : Entertainment One
    Genre : Drama
    ContentType : Short Film
    Description : Профессор философии Эйб Лукас опустошен: он не видит в своей жизни ни радости, ни смысла. / На лето Эйб приезжает преподавать в небольшой колледж, где у него завязываются отношения с двумя очень разными женщинами.
    Recorded date : UTC 2015-05-15 08:00:00
    Encoded date : UTC 2016-01-18 22:47:36
    Tagged date : UTC 2016-01-18 22:49:15
    Copyright : © 2015 Gravier Productions, Inc. All rights reserved.
    Cover : Yes
    Rating : None
    Title/Sort : Irrational Man
    LongDescription : Профессор философии Эйб Лукас опустошен: он не видит в своей жизни ни радости, ни смысла. / На лето Эйб приезжает преподавать в небольшой колледж, где у него завязываются отношения с двумя очень разными женщинами. Рита, его новая коллега, воображает, что именно он вызволит ее из несчастливого брака. А Джилл, его лучшая студентка, становится ему ближайшим другом. Но девушку неодолимо притягивают мятущаяся творческая натура Эйба и его загадочное прошлое, и она все больше отдаляется от своего бойфренда, Роя... / Все меняет невольно подслушанный Эйбом и Джилл разговор, после которого Эйб, стряхнув с себя равнодушие и отчаяние, решает действовать... Абсолютно иррационально.
    HDVideo : Yes
    AppleStoreCatalogID : 1019388303
    Vendor : Apple:vendor_id:2015-840992
    ContentRating : au-movie|M|350|
    Video #1
    ID : 1
    Format : AVC
    Format/Info : Advanced Video Codec
    Format profile : High@L3.1
    Format settings, CABAC : No
    Format settings, ReFrames : 3 frames
    Codec ID : avc1
    Codec ID/Info : Advanced Video Coding
    Duration : 1h 34mn
    Source duration : 1h 34mn
    Bit rate : 3 500 Kbps
    Width : 1 280 pixels
    Height : 528 pixels
    Display aspect ratio : 2.40:1
    Frame rate mode : Variable
    Frame rate : 23.976 (24000/1001) fps
    Minimum frame rate : 23.974 fps
    Maximum frame rate : 23.981 fps
    Color space : YUV
    Chroma subsampling : 4:2:0
    Bit depth : 8 bits
    Scan type : Progressive
    Bits/(Pixel*Frame) : 0.216
    Stream size : 2.32 GiB (72%)
    Source stream size : 2.32 GiB (72%)
    Title : Main Program
    Writing library : x264 core 142 r2479 dd79a61
    Encoding settings : cabac=0 / ref=3 / deblock=1:-3:-3 / analyse=0x3:0x113 / me=umh / subme=9 / psy=1 / psy_rd=1.00:0.15 / mixed_ref=1 / me_range=32 / chroma_me=1 / trellis=0 / 8x8dct=1 / cqm=0 / deadzone=21,11 / fast_pskip=0 / chroma_qp_offset=-2 / threads=36 / lookahead_threads=3 / sliced_threads=0 / nr=0 / decimate=0 / interlaced=0 / bluray_compat=0 / constrained_intra=0 / bframes=3 / b_pyramid=0 / b_adapt=2 / b_bias=0 / direct=1 / weightb=0 / open_gop=0 / weightp=0 / keyint=240 / keyint_min=24 / scenecut=40 / intra_refresh=0 / rc_lookahead=40 / rc=2pass / mbtree=1 / bitrate=3500 / ratetol=1.0 / qcomp=0.65 / qpmin=0 / qpmax=69 / qpstep=4 / cplxblur=20.0 / qblur=0.5 / vbv_maxrate=9500 / vbv_bufsize=9500 / nal_hrd=none / filler=0 / ip_ratio=1.40 / aq=1:1.10
    Language : English
    Encoded date : UTC 2016-01-18 22:47:36
    Tagged date : UTC 2016-01-18 22:47:43
    Color range : Limited
    Color primaries : BT.709
    Transfer characteristics : BT.709
    Matrix coefficients : BT.709
    Menus : 7,8
    Video #2
    ID : 8
    Format : JPEG
    Codec ID : jpeg
    Duration : 1h 34mn
    Bit rate mode : Variable
    Bit rate : 1 400 bps
    Width : 640 pixels
    Height : 264 pixels
    Display aspect ratio : 2.40:1
    Frame rate mode : Variable
    Frame rate : 0.003 fps
    Minimum frame rate : 0.002 fps
    Maximum frame rate : 0.004 fps
    Color space : YUV
    Chroma subsampling : 4:2:0
    Bit depth : 8 bits
    Compression mode : Lossy
    Bits/(Pixel*Frame) : 2.762
    Stream size : 911 KiB (0%)
    Title : Chapter Images
    Language : English
    Default : No
    Encoded date : UTC 2016-01-18 22:48:31
    Tagged date : UTC 2016-01-18 22:48:31
    Menu For : 1
    Audio #1
    ID : 2
    Format : AAC
    Format/Info : Advanced Audio Codec
    Format profile : LC
    Codec ID : 40
    Duration : 1h 34mn
    Bit rate mode : Variable
    Bit rate : 157 Kbps
    Maximum bit rate : 225 Kbps
    Channel(s) : 2 channels
    Channel positions : Front: L R
    Sampling rate : 48.0 KHz
    Frame rate : 46.875 fps (1024 spf)
    Compression mode : Lossy
    Stream size : 106 MiB (3%)
    Title : Russian Stereo
    Language : Russian
    Default : Yes
    Alternate group : 1
    Encoded date : UTC 2016-01-18 22:47:36
    Tagged date : UTC 2016-01-18 22:48:27
    Fallback From : 4
    Audio #2
    ID : 3
    Format : AAC
    Format/Info : Advanced Audio Codec
    Format profile : LC
    Codec ID : 40
    Duration : 1h 34mn
    Bit rate mode : Variable
    Bit rate : 157 Kbps
    Maximum bit rate : 233 Kbps
    Channel(s) : 2 channels
    Channel positions : Front: L R
    Sampling rate : 48.0 KHz
    Frame rate : 46.875 fps (1024 spf)
    Compression mode : Lossy
    Stream size : 107 MiB (3%)
    Title : English Stereo
    Language : English
    Default : No
    Alternate group : 1
    Encoded date : UTC 2016-01-18 22:47:36
    Tagged date : UTC 2016-01-18 22:48:27
    Fallback From : 5
    Audio #3
    ID : 4
    Format : AC-3
    Format/Info : Audio Coding 3
    Mode extension : CM (complete main)
    Format settings, Endianness : Big
    Codec ID : ac-3
    Duration : 1h 34mn
    Bit rate mode : Constant
    Bit rate : 384 Kbps
    Channel(s) : 6 channels
    Channel positions : Front: L C R, Side: L R, LFE
    Sampling rate : 48.0 KHz
    Frame rate : 31.250 fps (1536 spf)
    Bit depth : 16 bits
    Compression mode : Lossy
    Stream size : 260 MiB (8%)
    Title : Russian DD 5.1
    Language : Russian
    Default : Inherited From: 2
    Alternate group : 1
    Encoded date : UTC 2016-01-18 22:47:36
    Tagged date : UTC 2016-01-18 22:48:27
    Fallback To : 2
    Audio #4
    ID : 5
    Format : AC-3
    Format/Info : Audio Coding 3
    Mode extension : CM (complete main)
    Format settings, Endianness : Big
    Codec ID : ac-3
    Duration : 1h 34mn
    Bit rate mode : Constant
    Bit rate : 640 Kbps
    Channel(s) : 6 channels
    Channel positions : Front: L C R, Side: L R, LFE
    Sampling rate : 48.0 KHz
    Frame rate : 31.250 fps (1536 spf)
    Bit depth : 16 bits
    Compression mode : Lossy
    Stream size : 434 MiB (13%)
    Title : English DD 5.1
    Language : English
    Default : No
    Alternate group : 1
    Encoded date : UTC 2016-01-18 22:47:36
    Tagged date : UTC 2016-01-18 22:48:27
    Fallback To : 3
    Text
    ID : 6
    Format : Timed Text
    Muxing mode : sbtl
    Codec ID : tx3g
    Duration : 1h 30mn
    Bit rate mode : Variable
    Bit rate : 107 bps
    Stream size : 71.3 KiB (0%)
    Title : English full
    Language : English
    Default : Yes
    Forced : No
    Alternate group : 2
    Encoded date : UTC 2016-01-18 22:47:36
    Tagged date : UTC 2016-01-18 22:48:26
    Menu #1
    00:00:00.000 : Chapter 1
    00:04:40.197 : Chapter 2
    00:09:23.772 : Chapter 3
    00:13:30.184 : Chapter 4
    00:17:54.782 : Chapter 5
    00:23:17.730 : Chapter 6
    00:30:58.231 : Chapter 7
    00:38:21.299 : Chapter 8
    00:45:41.155 : Chapter 9
    00:54:50.370 : Chapter 10
    01:00:10.273 : Chapter 11
    01:04:35.121 : Chapter 12
    01:09:44.222 : Chapter 13
    01:13:58.559 : Chapter 14
    01:20:16.103 : Chapter 15
    01:26:02.199 : Chapter 16
    Menu #2
    ID : 7
    Codec ID : text
    Duration : 1h 34mn
    Language : English
    Encoded date : UTC 2016-01-18 22:48:27
    Tagged date : UTC 2016-01-18 22:48:27
    Menu For : 1
    00:00:00.000 : Chapter 1
    00:04:40.197 : Chapter 2
    00:09:23.772 : Chapter 3
    00:13:30.184 : Chapter 4
    00:17:54.782 : Chapter 5
    00:23:17.730 : Chapter 6
    00:30:58.231 : Chapter 7
    00:38:21.299 : Chapter 8
    00:45:41.155 : Chapter 9
    00:54:50.370 : Chapter 10
    01:00:10.273 : Chapter 11
    01:04:35.121 : Chapter 12
    01:09:44.222 : Chapter 13
    01:13:58.559 : Chapter 14
    01:20:16.103 : Chapter 15
    01:26:02.199 : Chapter 16
    Bit rate mode : VBR

    x264 лог

    x264 [info]: frame I:877   Avg QP:13.81  size:103702
    x264 [info]: frame P:48446 Avg QP:17.59  size: 36049
    x264 [info]: frame B:87093 Avg QP:19.76  size:  7476
    x264 [info]: consecutive B-frames:  2.4% 32.4% 15.1% 50.2%
    x264 [info]: mb I  I16..4: 16.4% 50.5% 33.2%
    x264 [info]: mb P  I16..4:  0.7%  2.8%  1.5%  P16..4: 45.3% 30.3% 13.9%  0.0%  0.0%    skip: 5.6%
    x264 [info]: mb B  I16..4:  0.0%  0.3%  0.1%  B16..8: 43.9%  9.3%  1.8%  direct: 3.3%  skip:41.4%  L0:37.4% L1:53.7% BI: 8.8%
    x264 [info]: 8x8 transform intra:55.1% inter:43.0%
    x264 [info]: coded y,uvDC,uvAC intra: 86.2% 84.9% 69.5% inter: 29.1% 19.5% 12.4%
    x264 [info]: i16 v,h,dc,p: 70% 10%  6% 15%
    x264 [info]: i8 v,h,dc,ddl,ddr,vr,hd,vl,hu: 11% 10%  7% 10% 14% 14% 13% 12% 10%
    x264 [info]: i4 v,h,dc,ddl,ddr,vr,hd,vl,hu: 12%  9%  3% 10% 15% 16% 13% 12% 10%
    x264 [info]: i8c dc,h,v,p: 51% 16% 21% 11%
    x264 [info]: ref P L0: 75.2% 14.5% 10.4%
    x264 [info]: ref B L0: 82.1% 17.9%
    x264 [info]: kb/s:3498.91

    Скриншоты

    -

    Релиз подготовлен для просмотра на Apple TV, iPad, iPhone, iPod Touch.
    Для просмотра данного релиза на компьютере с ОС Windows рекомендуется использовать VLC media player
    Скачать .torrent

    Скачать торрент-файл бесплатно и на максимальной скорости!

    Как скачивать? · Что такое торрент? · Рейтинг и ограничения

    !ВНИМАНИЕ!
    Сайт не распространяет и не хранит электронные версии произведений, а занимается лишь лишь предоставлением доступа к создаваемому пользователями каталогу ссылок на торрент-файлы, которые содержат только списки хеш-сумм, убедительная просьба с жалобами обращаться напрямую к пользователю. Файлы для обмена на трекере предоставлены пользователями сайта, и администрация не несёт ответственности за их содержание. Просьба не заливать файлы, защищенные авторскими правами, а также файлы нелегального содержания!


    _________________
    [Профиль] [ЛС]
    Показать сообщения:    
    Ответить на тему

    Текущее время: Сегодня, в 20:38

    Часовой пояс: GMT + 2



    Вы не можете начинать темы
    Вы не можете отвечать на сообщения
    Вы не можете редактировать свои сообщения
    Вы не можете удалять свои сообщения
    Вы не можете голосовать в опросах
    Вы не можете прикреплять файлы к сообщениям
    Вы не можете скачивать файлы