BitTorrentTracker PerecTracker.org
BitTorrentTracker PerecTracker.org
    
Регистрация  ·  Вход
 
 · 
Забыли пароль?

  • Пираты Карибского моря: На краю Света / Pirates of the Caribbean: At World\'s End (Гор Вербински / Gore Verbinski) [2007, США, фэнтези, боевик, приключения, HDTV 1080i] [Open Matte] Dub

    Ответить на тему
     
    Автор Сообщение

    Flirldrerve

    Создавать темы 17-Янв-2016 23:01

           

    [Цитировать]

    Пираты Карибского моря: На краю Света / Pirates of the Caribbean: At World's End / Open Matte
    Страна: США
    Жанр: фэнтези, боевик, приключения
    Год выпуска: 2007
    Продолжительность: 02:32:32
    Перевод: Профессиональный (дублированный)
    Cубтитры: нет
    Оригинальная аудиодорожка: нет
    Режиссер: Гор Вербински / Gore Verbinski
    В ролях: Джонни Депп, Джеффри Раш, Орландо Блум, Кира Найтли, Билл Найи, Джек Девенпорт, Джонатан Прайс, Стеллан Скарсгард, Том Холландер, Чоу Юнь-Фат
    Описание: Новые приключения Джека Спэрроу и его друзей Уилла Тернера и Элизабет Суонн. На этот раз Уиллу и Элизабет придется объединиться с самим Капитаном Барбоссой для того, чтобы отправиться на край света и спасти своего друга — Джека «Воробья». Ситуация осложняется тем, что Элизабет попадает к сингапурским пиратам…
    Доп. информация: Запись с канала Первый HD. Из видеоряда удалена вся всплывающая реклама, остались послерекламные вставки с названием.
    Сэмпл: https://yadi.sk/i/Dgaw7oXvmzVjc
    Тип релиза: HDTV 1080i
    Контейнер: TS
    Видео: AVC, 1920x1080 (16:9), 25.000 fps, 12.9 Mbps (0.248 bit/pixel)
    Аудио: MP2, 48.0 KHz, 2 ch, 192 Kbps, CBR (Russian)

    MediaInfo

    Общее
    Идентификатор : 1 (0x1)
    Полное имя : N:\Пираты Карибского моря. На краю света.ts
    Формат : MPEG-TS
    Размер файла : 14,6 Гбайт
    Продолжительность : 2 ч. 32 м.
    Общий поток : 13,7 Мбит/сек
    Видео
    Идентификатор : 2141 (0x85D)
    Идентификатор меню : 21004 (0x520C)
    Формат : AVC
    Формат/Информация : Advanced Video Codec
    Профиль формата : Main@L4
    Параметр CABAC формата : Да
    Параметр ReFrames формата : 3 кадра
    Параметр GOP формата : M=4, N=28
    Идентификатор кодека : 27
    Продолжительность : 2 ч. 32 м.
    Битрейт : 12,9 Мбит/сек
    Ширина : 1920 пикселей
    Высота : 1080 пикселей
    Соотношение сторон : 16:9
    Частота кадров : 25,000 кадров/сек
    Стандарт вещания : Component
    Цветовое пространство : YUV
    Субдискретизация насыщенности : 4:2:0
    Битовая глубина : 8 бит
    Тип развёртки : Чересстрочная
    Метод сохранения типа развёртки : Раздельные поля
    Порядок развёртки : Верхнее поле первое
    Бит/(Пиксели*Кадры) : 0.248
    Размер потока : 13,7 Гбайт (94%)
    Цветовой диапазон : Limited
    Основные цвета : BT.709
    Характеристики трансфера : BT.709
    Коэффициенты матрицы : BT.709
    Аудио
    Идентификатор : 2142 (0x85E)
    Идентификатор меню : 21004 (0x520C)
    Формат : MPEG Audio
    Версия формата : Version 1
    Профиль формата : Layer 2
    Идентификатор кодека : 3
    Продолжительность : 2 ч. 32 м.
    Вид битрейта : Постоянный
    Битрейт : 192 Кбит/сек
    Каналы : 2 канала
    Частота : 48,0 КГц
    Метод сжатия : С потерями
    Размер потока : 209 Мбайт (1%)
    Язык : Russian

    Скриншоты

    Скачать .torrent

    Скачать торрент-файл бесплатно и на максимальной скорости!

    Как скачивать? · Что такое торрент? · Рейтинг и ограничения

    !ВНИМАНИЕ!
    Сайт не распространяет и не хранит электронные версии произведений, а занимается лишь лишь предоставлением доступа к создаваемому пользователями каталогу ссылок на торрент-файлы, которые содержат только списки хеш-сумм, убедительная просьба с жалобами обращаться напрямую к пользователю. Файлы для обмена на трекере предоставлены пользователями сайта, и администрация не несёт ответственности за их содержание. Просьба не заливать файлы, защищенные авторскими правами, а также файлы нелегального содержания!


    _________________
    [Профиль] [ЛС]
    Показать сообщения:    
    Ответить на тему

    Текущее время: Сегодня, в 14:02

    Часовой пояс: GMT + 2



    Вы не можете начинать темы
    Вы не можете отвечать на сообщения
    Вы не можете редактировать свои сообщения
    Вы не можете удалять свои сообщения
    Вы не можете голосовать в опросах
    Вы не можете прикреплять файлы к сообщениям
    Вы не можете скачивать файлы