Register  ·  Log in
Forgot password?

  • Рождественский переполох / Christmas Bounty (Джил Джангер / Gil Junger) [2013, США, боевик, комедия, HDTV1080i] MVO (SDI Media)

    Reply to topic
    Author Message


    Post 18-Jan-2016 00:01



    Рождественский переполох / Christmas Bounty-Страна: США
    Студия: ABC Family, WWE Studios
    Жанр: боевик, комедия
    Год выпуска: 2013
    Продолжительность: 01:09:58-Перевод: Профессиональный (многоголосый закадровый) - SDI Media
    Cубтитры: нет
    Оригинальная аудиодорожка: нет-Режиссер: Джил Джангер / Gil Junger
    В ролях: Франсия Райза, Майк Мизанин, Уилл Гринберг, Майкл Хэйнус, Эйприл Телек, Скотт Пэйти, Алекс Паунович, Чилан Симмонс, Кит Даллас, Малкольм Стюарт, Карен Крупер- -Описание: Бывшая охотница за головами становится учительницей младших классов, пытаясь жить нормальной жизнью и держа в секрете свое прошлое. Однако, отправившись домой на Рождество, она вынуждена снова приняться за дело, чтобы спасти семейный бизнес.-Семпл:Тип релиза: HDTV 1080i
    Контейнер: TS
    Видео: 1920x1080 (16:9), 25.000 fps, AVC, ~7940 kbps, 0.153 bits/pixel
    Аудио: Russian, 48.0 KHz, AC3, 2 ch, 192 kbps


    GeneralID : 1 (0x1)Complete name : Christmas Bounty 2013 TV1000MegahitHD MVO SDI-Media.tsFormat : MPEG-TSFile size : 4.18 GiBDuration : 1h 9mnOverall bit rate mode : VariableOverall bit rate : 8 557 Kbps
    VideoID : 303 (0x12F)Menu ID : 1 (0x1)Format : AVCFormat/Info : Advanced Video CodecFormat profile : Main@L4Format settings, CABAC : YesFormat settings, ReFrames : 4 framesCodec ID : 27Duration : 1h 9mnBit rate : 7 940 KbpsWidth : 1 920 pixelsHeight : 1 080 pixelsDisplay aspect ratio : 16:9Frame rate : 25.000 fpsStandard : ComponentColor space : YUVChroma subsampling : 4:2:0Bit depth : 8 bitsScan type : InterlacedScan type, store method : Separated fieldsScan order : Top Field FirstBits/(Pixel*Frame) : 0.153Stream size : 3.88 GiB (93%)Color range : LimitedColor primaries : BT.709Transfer characteristics : BT.709Matrix coefficients : BT.709
    AudioID : 423 (0x1A7)Menu ID : 1 (0x1)Format : AC-3Format/Info : Audio Coding 3Mode extension : CM (complete main)Format settings, Endianness : BigCodec ID : 6Duration : 1h 9mnBit rate mode : ConstantBit rate : 192 KbpsChannel(s) : 2 channelsChannel positions : Front: L RSampling rate : 48.0 KHzFrame rate : 31.250 fps (1536 spf)Compression mode : LossyStream size : 96.1 MiB (2%)Language : Russian


    Download .torrent

    Download free and at maximum speed!

    How to Download? · What is a torrent? · Ratings and Limitations

    The site does not extend and does not store electronic(digital) versions of products, and only gives access to a reference catalogue created by users on torrent-files which contain only lists of the hash-sums, the earnest entreaty, with complaints(abuse) to access directly to the user. Files for an exchange on tracker are given by users of a site, and the administration does not bear the responsibility for their maintenance. The request to not fill in the files protected by copyrights, and also files of the illegal maintenance!

    [Profile] [PM]


    Post 18-Jan-2016 01:07 (after 1 hour 6 minutes)


    Топик был перенесен из форума Зарубежное кино (HD Video) в форум Новогодние релизы - Фильмы, Мультфильмы


    Как бы ты высоко не летал, не забывай, с кем ты ползал..
    Display posts from previous:    
    Reply to topic

    The time now is: Today 23:26

    All times are GMT + 3 Hours

    You cannot post new topics in this forum
    You cannot reply to topics in this forum
    You cannot edit your posts in this forum
    You cannot delete your posts in this forum
    You cannot vote in polls in this forum
    You cannot attach files in this forum
    You cannot download files in this forum