BitTorrentTracker PerecTracker.org
BitTorrentTracker PerecTracker.org
    
Регистрация  ·  Вход
 
 · 
Забыли пароль?

  • Темный кристалл / The Dark Crystal (Джим Хенсон / Jim Henson, Фрэнк Оз / Frank Oz) [1982, США, Великобритания, фэнтези, приключения, семейный, BDRemux 1080p] DVO (Tycoon) + AVO (А. Гаврилов) + VO + Sub Rus, Eng + Original Eng

    Ответить на тему
     
    Автор Сообщение

    Flirldrerve

    Создавать темы 17-Янв-2016 18:49

           

    [Цитировать]

    Темный кристалл / The Dark Crystal
    Страна: США, Великобритания
    Жанр: фэнтези, приключения, семейный
    Год выпуска: 1982
    Продолжительность: 01:33:08
    Перевод: Профессиональный (двухголосый закадровый) Tycoon
    Перевод 2: Авторский (одноголосый закадровый) А. Гаврилов
    Перевод 3: Одноголосый закадровый
    Cубтитры: русские, английские
    Оригинальная аудиодорожка: английский
    Режиссер: Джим Хенсон / Jim Henson, Фрэнк Оз / Frank Oz
    В ролях: Джим Хенсон, Кэтрин Маллен, Фрэнк Оз, Дэйв Гольц, Стив Уитмир, Луиз Голд, Брайан Мюэль, Боб Пэйн, Майк Куинн, Тимоти М. Роуз
    Описание: Веками в волшебной стране, которую населял народ гелфлингов, царил мир и покой. Но однажды произошла страшная беда: был поврежден Темный кристалл, магический камень, управляющий законами Вселенной. Из-за этого нарушилось равновесие хаоса и порядка, а бедных человекообразных гелфлингов поработили воинственные, злобные ящеры скексисы.
    Если Темный кристалл не починить до дня Великого слияния трех солнц, кошмарные скексисы будут вечно править миром. И тогда храбрые гелфлинги Джен и Кира отправляютсяна полные опасностей и приключений поиски отколовшейся части кристалла, без которой нельзя исправить святыню…

    Сэмпл: http://sendfile.su/1193196
    Тип релиза: BDRemux 1080p
    Контейнер: MKV
    Видео: 1920x1080 (16:9), 23.976 fps, AVC, 27950 kbps, 0.590 bits/pixel
    Аудио: Russian: 48 kHz, AC3, 3/2 (L,C,R,l,r) + LFE ch, ~448.00 kbps avg |Tycoon
    Аудио 2: Russian: 48 kHz, AC3, 3/2 (L,C,R,l,r) + LFE ch, ~448.00 kbps avg |А. Гаврилов
    Аудио 3: Russian: 48 kHz, DTS, 3/2 (L,C,R,l,r) + LFE ch, ~1536.00 kbps avg
    Аудио 4: DTS-HD Master Audio English 3592 kbps 5.1 / 48 kHz / 24-bit (DTS Core: 5.1 / 48 kHz / 1509 kbps / 24-bit)
    Формат субтитров: softsub (SRT)

    MediaInfo

    General
    Unique ID : 174208812641230404259606985615584725563 (0x830F659A33C498C98F4B743BCD5F0A3B)
    Complete name : C:\Torrent\The Dark Crystal 1982 1080p Remux.mkv
    Format : Matroska
    Format version : Version 4 / Version 2
    File size : 22.1 GiB
    Duration : 1h 33mn
    Overall bit rate mode : Variable
    Overall bit rate : 34.0 Mbps
    Encoded date : UTC 2016-01-14 06:56:45
    Writing application : mkvmerge v7.4.0 ('Circles') 64bit built on Dec 12 2014 12:19:56
    Writing library : libebml v1.3.0 + libmatroska v1.4.1
    _STATISTICS_WRITING_APP : mkvmerge v7.4.0 ('Circles') 64bit built on Dec 12 2014 12:19:56
    _STATISTICS_WRITING_DATE_UTC : 2016-01-14 06:56:45
    _STATISTICS_TAGS : BPS DURATION NUMBER_OF_FRAMES NUMBER_OF_BYTES
    DURATION : 01:33:07.563000000
    NUMBER_OF_FRAMES : 523834
    NUMBER_OF_BYTES : 1054477842
    Video
    ID : 1
    Format : AVC
    Format/Info : Advanced Video Codec
    Format profile : High@L4.1
    Format settings, CABAC : Yes
    Format settings, ReFrames : 2 frames
    Format settings, GOP : M=1, N=10
    Codec ID : V_MPEG4/ISO/AVC
    Duration : 1h 33mn
    Bit rate mode : Variable
    Width : 1 920 pixels
    Height : 1 080 pixels
    Display aspect ratio : 16:9
    Frame rate mode : Constant
    Frame rate : 23.976 fps
    Color space : YUV
    Chroma subsampling : 4:2:0
    Bit depth : 8 bits
    Scan type : Progressive
    Language : English
    Default : No
    Forced : No
    _STATISTICS_WRITING_APP : mkvmerge v7.4.0 ('Circles') 64bit built on Dec 12 2014 12:19:56
    _STATISTICS_WRITING_DATE_UTC : 2016-01-14 06:56:45
    _STATISTICS_TAGS : BPS DURATION NUMBER_OF_FRAMES NUMBER_OF_BYTES
    DURATION : 01:33:07.582000000
    NUMBER_OF_FRAMES : 133968
    NUMBER_OF_BYTES : 19521574702
    Audio #1
    ID : 2
    Format : AC-3
    Format/Info : Audio Coding 3
    Mode extension : CM (complete main)
    Format settings, Endianness : Big
    Codec ID : A_AC3
    Duration : 1h 33mn
    Bit rate mode : Constant
    Bit rate : 448 Kbps
    Channel(s) : 6 channels
    Channel positions : Front: L C R, Side: L R, LFE
    Sampling rate : 48.0 KHz
    Bit depth : 16 bits
    Compression mode : Lossy
    Stream size : 298 MiB (1%)
    Title : Tycoon
    Language : Russian
    Default : Yes
    Forced : No
    Audio #2
    ID : 3
    Format : AC-3
    Format/Info : Audio Coding 3
    Mode extension : CM (complete main)
    Format settings, Endianness : Big
    Codec ID : A_AC3
    Duration : 1h 33mn
    Bit rate mode : Constant
    Bit rate : 448 Kbps
    Channel(s) : 6 channels
    Channel positions : Front: L C R, Side: L R, LFE
    Sampling rate : 48.0 KHz
    Bit depth : 16 bits
    Compression mode : Lossy
    Stream size : 298 MiB (1%)
    Title : Гаврилов
    Language : Russian
    Default : No
    Forced : No
    Audio #3
    ID : 4
    Format : DTS
    Format/Info : Digital Theater Systems
    Mode : 16
    Format settings, Endianness : Big
    Codec ID : A_DTS
    Duration : 1h 33mn
    Bit rate mode : Constant
    Bit rate : 1 510 Kbps
    Channel(s) : 6 channels
    Channel positions : Front: L C R, Side: L R, LFE
    Sampling rate : 48.0 KHz
    Bit depth : 24 bits
    Compression mode : Lossy
    Stream size : 1 006 MiB (4%)
    Language : Russian
    Default : No
    Forced : No
    Audio #4
    ID : 5
    Format : DTS
    Format/Info : Digital Theater Systems
    Format profile : MA / Core
    Mode : 16
    Format settings, Endianness : Big
    Codec ID : A_DTS
    Duration : 1h 33mn
    Bit rate mode : Variable
    Bit rate : Unknown / 1 509 Kbps
    Channel(s) : 6 channels
    Channel positions : Front: L C R, Side: L R, LFE
    Sampling rate : 48.0 KHz
    Bit depth : 24 bits
    Compression mode : Lossless / Lossy
    Language : English
    Default : No
    Forced : No
    Text #1
    ID : 6
    Format : UTF-8
    Codec ID : S_TEXT/UTF8
    Codec ID/Info : UTF-8 Plain Text
    Language : Russian
    Default : No
    Forced : No
    Text #2
    ID : 7
    Format : UTF-8
    Codec ID : S_TEXT/UTF8
    Codec ID/Info : UTF-8 Plain Text
    Language : English
    Default : No
    Forced : No
    Menu
    00:00:00.000 : en:Chapter 01
    00:05:24.198 : en:Chapter 02
    00:09:46.794 : en:Chapter 03
    00:14:24.113 : en:Chapter 04
    00:19:50.814 : en:Chapter 05
    00:24:40.937 : en:Chapter 06
    00:29:04.993 : en:Chapter 07
    00:32:22.565 : en:Chapter 08
    00:38:03.781 : en:Chapter 09
    00:43:11.130 : en:Chapter 10
    00:50:28.442 : en:Chapter 11
    00:54:59.129 : en:Chapter 12
    01:00:31.544 : en:Chapter 13
    01:08:16.967 : en:Chapter 14
    01:18:02.010 : en:Chapter 15
    01:21:41.062 : en:Chapter 16

    Скриншоты

    Скачать .torrent

    Скачать торрент-файл бесплатно и на максимальной скорости!

    Как скачивать? · Что такое торрент? · Рейтинг и ограничения

    !ВНИМАНИЕ!
    Сайт не распространяет и не хранит электронные версии произведений, а занимается лишь лишь предоставлением доступа к создаваемому пользователями каталогу ссылок на торрент-файлы, которые содержат только списки хеш-сумм, убедительная просьба с жалобами обращаться напрямую к пользователю. Файлы для обмена на трекере предоставлены пользователями сайта, и администрация не несёт ответственности за их содержание. Просьба не заливать файлы, защищенные авторскими правами, а также файлы нелегального содержания!


    _________________
    [Профиль] [ЛС]
    Показать сообщения:    
    Ответить на тему

    Текущее время: Сегодня, в 06:30

    Часовой пояс: GMT + 2



    Вы не можете начинать темы
    Вы не можете отвечать на сообщения
    Вы не можете редактировать свои сообщения
    Вы не можете удалять свои сообщения
    Вы не можете голосовать в опросах
    Вы не можете прикреплять файлы к сообщениям
    Вы не можете скачивать файлы