BitTorrentTracker PerecTracker.org
BitTorrentTracker PerecTracker.org
    
Регистрация  ·  Вход
 
 · 
Забыли пароль?

  • Дикие истории / Wild Tales / Relatos salvajes (Дамиан Шифрон / Damián Szifron) [2014, Аргентина, Испания, Киноальманах, чёрная комедия, драма, BDRip] Dub (iTunes)

    Ответить на тему
     
    Автор Сообщение

    rechyn

    Создавать темы 17-Янв-2016 18:49

           

    [Цитировать]

    Дикие истории / Wild Tales / Relatos salvajes
    Совместное производство: Аргентина, Испания
    Жанр: Киноальманах, чёрная комедия, драма
    Год выпуска: 2014
    Продолжительность: 02:01:59
    Перевод: Профессиональный (дублированный) iTunes
    Cубтитры: отсутствуют
    Оригинальная аудиодорожка: нет
    Режиссёр: Дамиан Шифрон / Damián Szifron
    Актёры: Рикардо Дарин, Леонардо Сбаралья, Дарио Грандинетти, Эрика Ривас, Хульета Сильберберг, Мария Онетто, Оскар Мартинес, Рита Кортезе, Нэнси Дуплаа, Осмар Нуньес, и др.
    Аннотация: Калейдоскоп узнаваемых характеров, шесть отдельных историй, смешных, безумных, шокирующих.
    Стремление к успеху, соперничество, неуверенность, нестабильность и, как результат, стрессы и депрессии, последствия которых часто бывают кошмарными. Таков наш мир.
    Гэбриела Пастернака обижали многие, с кем сводила его жизнь – девушка, учитель музыки, профессор в консерватории, дантист. И вот все они, на свою беду, оказались вместе с ним в одном самолете…
    Ночью в придорожной закусочной официантка узнает в посетителе ростовщика, который много лет назад довел до самоубийства ее отца. А у поварихи, в прошлом отсидевшей срок, для мести такому гаду сразу нашлось средство – крысиный яд…
    Городской красавчик ехал на своей мощной Audi по пустынной дороге и решил обогнать старый Peugeot, но сидевший за рулем провинциальный упырь решил не уступать. И вот уже кровавый итог бессмысленного соперничества не за горами…

    Качество видео: BDRip [Relatos.salvajes.2014.BDRemux.1080p nnm-club]
    Формат видео: AVI
    Video: XviD 73 MPEG-4, 688x288, 2.35:1, 23.976 fps, ~721 kbps avg, 0.152 bit/pixel
    Audio: MP-3 Joint stereo, CBR 128 kbps 2 ch, 48.0 KHz

    MediaInfo

    ОбщееПолное имя : S:\Relatos_salvajes_2014_BDRip_[perectracker.org].aviФормат : AVIФормат/Информация : Audio Video InterleaveРазмер файла : 749 МбайтПродолжительность : 2 ч. 1 м.Общий поток : 858 Кбит/секНазвание фильма : Relatos_salvajes_2014_BDRip_[perectracker.org]Режиссёр : OGORODNIKOFFFЖанр : Чёрная комедияПрограмма кодирования : VirtualDubModRus 1.5.10.2 (build 2542/release)Формат оригинала/Имя : Фильмы 2011-2015Правообладатель : perectracker.orgПримечание : Дата рипа 16 января 2016 года
    ВидеоИдентификатор : 0Формат : MPEG-4 VisualПрофиль формата : Advanced Simple@L5Параметр BVOP формата : 1Параметр QPel формата : НетПараметр GMC формата : Без точки переходаПараметр матрицы формата : Default (MPEG)Идентификатор кодека : DX50Идентификатор кодека/Подсказка : DivX 5Продолжительность : 2 ч. 1 м.Битрейт : 721 Кбит/секШирина : 688 пикселейВысота : 288 пикселейСоотношение сторон : 2,35:1Частота кадров : 23,976 кадра/секЦветовое пространство : YUVСубдискретизация насыщенности : 4:2:0Битовая глубина : 8 битТип развёртки : ПрогрессивнаяМетод сжатия : С потерямиБит/(Пиксели*Кадры) : 0.152Размер потока : 629 Мбайт (84%)Библиотека кодирования : XviD 73
    АудиоИдентификатор : 1Формат : MPEG AudioВерсия формата : Version 1Профиль формата : Layer 3Режим : Joint stereoРасширение режима : MS StereoИдентификатор кодека : 55Идентификатор кодека/Подсказка : MP3Продолжительность : 2 ч. 1 м.Вид битрейта : ПостоянныйБитрейт : 128 Кбит/секКаналы : 2 каналаЧастота : 48,0 КГцМетод сжатия : С потерямиРазмер потока : 112 Мбайт (15%)Выравнивание : Соединение по промежуткамПродолжительность промежутка : 42 мс. (1,00 видеокадр)Время предзагрузки промежутка : 504 мс.Библиотека кодирования : LAME3.99rНастройки программы : -m j -V 4 -q 2 -lowpass 17 -b 128

    Скриншот c названием фильма

    Скриншоты

    Время раздачи - по возможности.
    Скачать .torrent

    Скачать торрент-файл бесплатно и на максимальной скорости!

    Как скачивать? · Что такое торрент? · Рейтинг и ограничения

    !ВНИМАНИЕ!
    Сайт не распространяет и не хранит электронные версии произведений, а занимается лишь лишь предоставлением доступа к создаваемому пользователями каталогу ссылок на торрент-файлы, которые содержат только списки хеш-сумм, убедительная просьба с жалобами обращаться напрямую к пользователю. Файлы для обмена на трекере предоставлены пользователями сайта, и администрация не несёт ответственности за их содержание. Просьба не заливать файлы, защищенные авторскими правами, а также файлы нелегального содержания!


    _________________
    [Профиль] [ЛС]
    Показать сообщения:    
    Ответить на тему

    Текущее время: Сегодня, в 20:17

    Часовой пояс: GMT + 2



    Вы не можете начинать темы
    Вы не можете отвечать на сообщения
    Вы не можете редактировать свои сообщения
    Вы не можете удалять свои сообщения
    Вы не можете голосовать в опросах
    Вы не можете прикреплять файлы к сообщениям
    Вы не можете скачивать файлы