BitTorrentTracker PerecTracker.org
BitTorrentTracker PerecTracker.org
    
Регистрация  ·  Вход
 
 · 
Забыли пароль?

  • Зеленый ад / Green Hell (Джеймс Уэйл / James Whale) [1940, США, приключения, мелодрама, TVRip] Sub Rus + Original Eng

    Ответить на тему
     
    Автор Сообщение

    Columb

    Создавать темы 22-Дек-2013 15:28

           

    [Цитировать]

    Зеленый ад / Green Hell
    Страна: США
    Жанр: приключения, мелодрама
    Год выпуска: 1940
    Продолжительность: 1:26:49
    Перевод: Субтитры (Serveladkin)
    Cубтитры: русские
    Оригинальная аудиодорожка: английский
    Режиссер: Джеймс Уэйл / James Whale
    В ролях: Дуглас Фэрбенкс мл., Джоан Беннетт, Джордж Сандерс, Джон Ховард, Алан Хейл, Джордж Бэнкрофт, Винсент Прайс, Юджин Герике, Фрэнсис МакДональд, Рэй Мала, Питер Бронте, Люпита Товар
    Описание: Группа исследователей отправляется вглубь южноамериканских джунглей в поисках сокровищ древних инков. Вскоре индейцы приводят к ним красивую женщину, желающую увидеться со своим мужем, который в последний момент присоединился к группе и был убит враждебными индейцами. Со временем ревность и раздражительность овладевают искателями приключений, и они начинают ссориться из-за женщины. Сокровища инков, наконец, найдены, но на кладоискателей, объединившихся перед лицом общего врага, вот-вот нападут сотни злобных индейцев, вооруженных луками и отравленными стрелами.
    Доп. информация:
    СПАСИБО Serveladkin за перевод
    Качество видео: TVRip
    Формат видео: AVI
    Видео: 640x480 (1.33:1), 23.976 fps, XviD build 47 ~1025 kbps avg, 0.14 bit/pixel
    Аудио: 48 kHz, AC3 Dolby Digital, 2/0 (L,R) ch, ~256 kbps
    Формат субтитров: softsub (SRT)

    MediaInfo

    GeneralComplete name : ...\GreenHell.aviFormat : AVIFormat/Info : Audio Video InterleaveFile size : 800 MiBDuration : 1h 26mnOverall bit rate : 1 288 KbpsWriting application : VirtualDubMod 1.5.4.1 (build 2178/release)Writing library : VirtualDubMod build 2178/release
    VideoID : 0Format : MPEG-4 VisualFormat profile : Advanced Simple@L5Format settings, BVOP : 1Format settings, QPel : NoFormat settings, GMC : No warppointsFormat settings, Matrix : CustomCodec ID : XVIDCodec ID/Hint : XviDDuration : 1h 26mnBit rate : 1 025 KbpsWidth : 640 pixelsHeight : 480 pixelsDisplay aspect ratio : 4:3Frame rate : 23.976 fpsColor space : YUVChroma subsampling : 4:2:0Bit depth : 8 bitsScan type : ProgressiveCompression mode : LossyBits/(Pixel*Frame) : 0.139Stream size : 637 MiB (80%)Writing library : XviD 1.2.0.dev47 (UTC 2006-11-01)
    AudioID : 1Format : AC-3Format/Info : Audio Coding 3Mode extension : CM (complete main)Codec ID : 2000Duration : 1h 26mnBit rate mode : ConstantBit rate : 256 KbpsChannel(s) : 2 channelsChannel positions : Front: L RSampling rate : 48.0 KHzBit depth : 16 bitsCompression mode : LossyDelay relative to video : 6msStream size : 159 MiB (20%)Alignment : Split accross interleavesInterleave, duration : 96 ms (2.30 video frames)Interleave, preload duration : 96 ms

    Скриншоты

    Фрагмент субтитров

    200:01:42,231 --> 00:01:45,002- Я хотел бы увидеть доктора Лорена.- Да, сеньор. У вас назначена встреча?
    300:01:45,122 --> 00:01:46,518Он примет меня.
    400:01:55,036 --> 00:01:56,228Доктор Лорен?
    500:01:56,348 --> 00:01:57,310Да.
    600:01:57,430 --> 00:02:00,965А, вот и Ричардсон!Рад вас видеть, садитесь.
    700:02:01,841 --> 00:02:05,584О, я забыл... позвольте представитьвам Форрестера, он один из нас.
    800:02:05,704 --> 00:02:07,466- Здравствуйте.- Здравствуйте.
    900:02:08,203 --> 00:02:10,053Выпейте что-нибудь, пиво замечательное.
    1000:02:10,173 --> 00:02:12,419Разумеется, я предпочитаю в бутылке.
    1100:02:12,679 --> 00:02:14,510Вам может понравиться вот это.
    1200:02:14,630 --> 00:02:17,391Здесь ром, сок ананаса и гуавы...
    1300:02:17,511 --> 00:02:19,591и чуть-чуть дикой мяты.
    1400:02:19,711 --> 00:02:21,913У него весьма очаровательное название.
    1500:02:22,033 --> 00:02:24,066Его называют "Поцелуй возлюбленной".
    1600:02:24,732 --> 00:02:26,433- Скотч с содовой, пожалуйста.- Да, сеньор.
    1700:02:29,070 --> 00:02:31,851Полагаю, вы думаете, что мы свихнулись,собравшись в такую экспедицию.
    1800:02:31,971 --> 00:02:33,816Откровенно говоря, доктор, думаю, да.
    1900:02:33,936 --> 00:02:37,825Такой великий ученый-археолог, как вы, -и отправляетесь искать ветра в поле,
    2000:02:37,945 --> 00:02:40,896пытаясь найти инкские руиныв самом сердце джунглей.
    2100:02:41,016 --> 00:02:42,862О нет, вы ошибаетесь.
    Скачать .torrent

    Скачать торрент-файл бесплатно и на максимальной скорости!

    Как скачивать? · Что такое торрент? · Рейтинг и ограничения

    !ВНИМАНИЕ!
    Сайт не распространяет и не хранит электронные версии произведений, а занимается лишь лишь предоставлением доступа к создаваемому пользователями каталогу ссылок на торрент-файлы, которые содержат только списки хеш-сумм, убедительная просьба с жалобами обращаться напрямую к пользователю. Файлы для обмена на трекере предоставлены пользователями сайта, и администрация не несёт ответственности за их содержание. Просьба не заливать файлы, защищенные авторскими правами, а также файлы нелегального содержания!

    [Профиль] [ЛС]
    Показать сообщения:    
    Ответить на тему

    Текущее время: Сегодня, в 12:29

    Часовой пояс: GMT + 2



    Вы не можете начинать темы
    Вы не можете отвечать на сообщения
    Вы не можете редактировать свои сообщения
    Вы не можете удалять свои сообщения
    Вы не можете голосовать в опросах
    Вы не можете прикреплять файлы к сообщениям
    Вы не можете скачивать файлы