BitTorrentTracker PerecTracker.org
BitTorrentTracker PerecTracker.org
    
Регистрация  ·  Вход
 
 · 
Забыли пароль?

  • [ATV3] Черная месса / Black Mass (Скотт Купер / Scott Cooper ) [2015, США, Великобритания, Драма, криминал, биография, WEB-DL, HD (1080p)] DUB + Original + sub (rus, ukr, eng)

    Ответить на тему
     
    Автор Сообщение

    Flirldrerve

    Создавать темы 17-Янв-2016 14:37

           

    [Цитировать]

    Черная месса / Black Mass
    «Тайный сговор ФБР и одного из самых жестоких гангстеров в истории»
    6.749 / 10 7.10 / 10
    -Год выпуска: 2015
    Страна: США, Великобритания
    Жанр: Драма, криминал, биография
    Продолжительность: 02:02:33
    Перевод: Дублированный (iTunes)
    Оригинальная аудиодорожка: Есть
    Cубтитры: Русские форсированные, русские полные, украинские форсированные и английские полные
    Режиссёр: Скотт Купер
    Сценарий: Джез Баттеруорт
    Продюсер: Скотт Купер, Джон Лешер, Патрик МакКормик
    Оператор: Масанобу Такаянаги
    Композитор: Джанки Экс-Эл
    Художник: Стефания Челла, Джереми Вудворд, Кася Валицка-Мэймон
    Монтаж: Дэвид Розенблюм
    В ролях: Джонни Депп, Джоэл Эдгертон, Бенедикт Камбербэтч, Кевин Бейкон, Джесси Племонс, Питер Сарсгаард, Кори Столл, Дакота Джонсон, Рори Кокрейн, Дэвид Харбор
    Бюджет: $53 000 000
    Сборы в США: $62 575 678
    Сборы в России: $2 161 381
    Мировая премьера: 4 сентября 2015
    Премьера (РФ): 29 октября 2015, «Каро-Премьер»
    Релиз на DVD: 31 декабря 2015, «CP Дистрибуция»
    Релиз на Blu-Ray: 31 декабря 2015, «CP Дистрибуция»
    Описание: Картина расскажет об Уайти Балджере, знаменитом бостонском гангстере, который 16 лет находился в бегах и был арестован в июне 2011 года в Санта-Монике. Балджер, которому уже за 80, обвинялся в рэкете, был замешан в 19 убийствах и в то же время работал информатором на ФБР. Чтобы не попасть за решетку, он исчез в 1995 году и 16 лет успешно скрывался от правосудия.-Качество исходника: WEB-DL 1080p (BlueBird)
    Качество: WEB-DL
    Тип: HD (1080p)
    Контейнер: M4V
    Видео: H.264, 1916x796, 2.40:1, 4 572 Kbps, 23.976 fps
    Аудио 1: Русский/Дублированный (iTunes), AAC / 2.0 / 157 Kbps / 48.0 KHz
    Аудио 2: Английский/Оригинальная дорожка , AAC / 2.0 / 155 Kbps / 48.0 KHz
    Аудио 3: Украинский/Дублированный (iTunes), AAC / 2.0 / 155 Kbps / 44.1 KHz
    Аудио 4: Русский/Дублированный (iTunes), AC-3 / 5.1 / 384 Kbps / 48.0 KHz
    Аудио 5: Английский/Оригинальная дорожка , AC-3 / 5.1 / 384 Kbps / 48.0 KHz
    Субтитры 1: Русские форсированные
    Субтитры 2: Украинские форсированные
    Субтитры 3: Русские полные
    Субтитры 4: Английские полные
    -

    iTunes Meta Tags

    Sort Name: Black Mass
    XID: Apple:vendor_id:2015-736205
    contentID: 1037175698
    Copyright: © 2015 Warner Bros. Entertainment Inc., CCP Black Mass Film Holdings, LLC, Black Mass Holdings, LLC and RatPac Dune Entertainment LLC. All Rights Reserved. Statutory declaration under section 52A of the Copyright Act, 1957 (as amended): We, Warner Bros En
    Screenwriters: Джез Баттеруорт
    Producers: Скотт Купер, Джон Лешер, Патрик МакКормик
    Director: Скотт Купер
    Cast: Джонни Депп, Джоэл Эдгертон, Бенедикт Камбербэтч, Кевин Бейкон, Джесси Племонс, Питер Сарсгаард, Кори Столл, Дакота Джонсон, Рори Кокрейн, Дэвид Харбор
    Studio: Warner Bros.
    Rating Annotation: Rated R for brutal violence, language throughout, some sexual references and brief drug use.
    Rating: 5
    Long Description: Картина расскажет об Уайти Балджере, знаменитом бостонском гангстере, который 16 лет находился в бегах и был арестован в июне 2011 года в Санта-Монике. Балджер, которому уже за 80, обвинялся в рэкете, был замешан в 19 убийствах и в то же время работал информатором на ФБР. Чтобы не попасть за решетку, он исчез в 1995 году и 16 лет успешно скрывался от правосудия.
    Description: Картина расскажет об Уайти Балджере, знаменитом бостонском гангстере, который 16 лет находился в бегах и был арестован в июне 2011 года в Санта-Монике. Балджер, которому уже за 80, обвинялся в рэкете, был замешан в 19 убийствах и в то же время работал информатором на ФБР. Чтобы не попасть за решетку, он исчез в 1995 году и 16 лет успешно скрывался от правосудия.
    Release Date: 2015-09-04T08:00:00Z
    Genre: Drama
    Artist: Scott Cooper
    Name: Black Mass

    MediaInfo

    General
    Complete name : /Users/imac/HandBrake/Black.Mass.WEB-DL.1080p.m4v
    Format : MPEG-4
    Codec ID : M4V  (M4V /M4A /mp42/isom)
    File size : 4.98 GiB
    Duration : 2h 2mn
    Overall bit rate mode : Variable
    Overall bit rate : 5 819 Kbps
    Movie name : Black Mass
    Performer : Scott Cooper
    Director : Скотт Купер
    Actor : Джонни Депп / Джоэл Эдгертон / Бенедикт Камбербэтч / Кевин Бейкон / Джесси Племонс / Питер Сарсгаард / Кори Столл / Дакота Джонсон / Рори Кокрейн / Дэвид Харбор
    Screenplay by : Джез Баттеруорт
    Producer : Скотт Купер / Джон Лешер / Патрик МакКормик
    Production studio : Warner Bros.
    Genre : Drama
    ContentType : Short Film
    Description : Картина расскажет об Уайти Балджере, знаменитом бостонском гангстере, который 16 лет находился в бегах и был арестован в июне 2011 года в Санта-Монике. Балджер, которому уже за 80, обвинялся в рэкете, был замешан в 19 убийствах и в то же время работал информатором на ФБР. Чтобы не попасть за решетку, он исчез в 1995 году и 16 лет успешно скрывался от правосудия.
    Recorded date : UTC 2015-09-04 08:00:00
    Encoded date : UTC 2016-01-16 23:02:04
    Tagged date : UTC 2016-01-16 23:04:28
    Copyright : © 2015 Warner Bros. Entertainment Inc., CCP Black Mass Film Holdings, LLC, Black Mass Holdings, LLC and RatPac Dune Entertainment LLC. All Rights Reserved. Statutory declaration under section 52A of the Copyright Act, 1957 (as amended): We, Warner Bros En
    Cover : Yes
    Rating : None
    Title/Sort : Black Mass
    LongDescription : Картина расскажет об Уайти Балджере, знаменитом бостонском гангстере, который 16 лет находился в бегах и был арестован в июне 2011 года в Санта-Монике. Балджер, которому уже за 80, обвинялся в рэкете, был замешан в 19 убийствах и в то же время работал информатором на ФБР. Чтобы не попасть за решетку, он исчез в 1995 году и 16 лет успешно скрывался от правосудия.
    AppleStoreCatalogID : 1037175698
    Vendor : Apple:vendor_id:2015-736205
    ContentRating : mpaa|R|400|Rated R for brutal violence, language throughout, some sexual references and brief drug use.
    Video #1
    ID : 1
    Format : AVC
    Format/Info : Advanced Video Codec
    Format profile : High@L4
    Format settings, CABAC : Yes
    Format settings, ReFrames : 5 frames
    Codec ID : avc1
    Codec ID/Info : Advanced Video Coding
    Duration : 2h 2mn
    Bit rate : 4 572 Kbps
    Width : 1 916 pixels
    Height : 796 pixels
    Display aspect ratio : 2.40:1
    Frame rate mode : Variable
    Frame rate : 23.976 fps
    Minimum frame rate : 23.810 fps
    Maximum frame rate : 24.390 fps
    Color space : YUV
    Chroma subsampling : 4:2:0
    Bit depth : 8 bits
    Scan type : Progressive
    Bits/(Pixel*Frame) : 0.125
    Stream size : 3.91 GiB (79%)
    Title : Main Program
    Language : English
    Encoded date : UTC 2016-01-16 23:02:04
    Tagged date : UTC 2016-01-16 23:02:14
    Color range : Limited
    Color primaries : BT.709
    Transfer characteristics : BT.709
    Matrix coefficients : BT.709
    Menus : 11,12
    Video #2
    ID : 12
    Format : JPEG
    Codec ID : jpeg
    Duration : 2h 2mn
    Bit rate mode : Variable
    Bit rate : 550 bps
    Width : 640 pixels
    Height : 265 pixels
    Display aspect ratio : 2.40:1
    Frame rate mode : Variable
    Frame rate : 0.002 fps
    Minimum frame rate : 0.001 fps
    Maximum frame rate : 0.006 fps
    Color space : YUV
    Chroma subsampling : 4:2:0
    Bit depth : 8 bits
    Compression mode : Lossy
    Bits/(Pixel*Frame) : 1.621
    Stream size : 436 KiB (0%)
    Title : Chapter Images
    Language : English
    Default : No
    Encoded date : UTC 2016-01-16 23:02:23
    Tagged date : UTC 2016-01-16 23:02:23
    Menu For : 1
    Audio #1
    ID : 2
    Format : AAC
    Format/Info : Advanced Audio Codec
    Format profile : LC
    Codec ID : 40
    Duration : 2h 2mn
    Bit rate mode : Variable
    Bit rate : 157 Kbps
    Maximum bit rate : 218 Kbps
    Channel(s) : 2 channels
    Channel positions : Front: L R
    Sampling rate : 48.0 KHz
    Frame rate : 46.875 fps (1024 spf)
    Compression mode : Lossy
    Stream size : 137 MiB (3%)
    Title : Russian Stereo
    Language : Russian
    Default : Yes
    Alternate group : 1
    Encoded date : UTC 2016-01-16 23:02:04
    Tagged date : UTC 2016-01-16 23:02:17
    Fallback From : 5
    Subtitles : 7,9
    Menus : 11
    Audio #2
    ID : 3
    Format : AAC
    Format/Info : Advanced Audio Codec
    Format profile : LC
    Codec ID : 40
    Duration : 2h 2mn
    Bit rate mode : Variable
    Bit rate : 155 Kbps
    Maximum bit rate : 227 Kbps
    Channel(s) : 2 channels
    Channel positions : Front: L R
    Sampling rate : 48.0 KHz
    Frame rate : 46.875 fps (1024 spf)
    Compression mode : Lossy
    Stream size : 136 MiB (3%)
    Title : English Stereo
    Language : English
    Default : No
    Alternate group : 1
    Encoded date : UTC 2016-01-16 23:02:04
    Tagged date : UTC 2016-01-16 23:02:17
    Fallback From : 6
    Audio #3
    ID : 4
    Format : AAC
    Format/Info : Advanced Audio Codec
    Format profile : LC
    Codec ID : 40
    Duration : 2h 2mn
    Bit rate mode : Variable
    Bit rate : 155 Kbps
    Maximum bit rate : 235 Kbps
    Channel(s) : 2 channels
    Channel positions : Front: L R
    Sampling rate : 44.1 KHz
    Frame rate : 43.066 fps (1024 spf)
    Compression mode : Lossy
    Stream size : 136 MiB (3%)
    Title : Ukrainian Stereo
    Language : Ukrainian
    Default : No
    Alternate group : 1
    Encoded date : UTC 2016-01-16 23:02:04
    Tagged date : UTC 2016-01-16 23:02:17
    Subtitles : 8
    Audio #4
    ID : 5
    Format : AC-3
    Format/Info : Audio Coding 3
    Mode extension : CM (complete main)
    Format settings, Endianness : Big
    Codec ID : ac-3
    Duration : 2h 2mn
    Bit rate mode : Constant
    Bit rate : 384 Kbps
    Channel(s) : 6 channels
    Channel positions : Front: L C R, Side: L R, LFE
    Sampling rate : 48.0 KHz
    Frame rate : 31.250 fps (1536 spf)
    Bit depth : 16 bits
    Compression mode : Lossy
    Stream size : 337 MiB (7%)
    Title : Russian DD 5.1
    Language : Russian
    Default : Inherited From: 2
    Alternate group : 1
    Encoded date : UTC 2016-01-16 23:02:04
    Tagged date : UTC 2016-01-16 23:02:15
    Fallback To : 2
    Subtitles : 7,9
    Audio #5
    ID : 6
    Format : AC-3
    Format/Info : Audio Coding 3
    Mode extension : CM (complete main)
    Format settings, Endianness : Big
    Codec ID : ac-3
    Duration : 2h 2mn
    Bit rate mode : Constant
    Bit rate : 384 Kbps
    Channel(s) : 6 channels
    Channel positions : Front: L C R, Side: L R, LFE
    Sampling rate : 48.0 KHz
    Frame rate : 31.250 fps (1536 spf)
    Bit depth : 16 bits
    Compression mode : Lossy
    Stream size : 337 MiB (7%)
    Title : English DD 5.1
    Language : English
    Default : No
    Alternate group : 1
    Encoded date : UTC 2016-01-16 23:02:04
    Tagged date : UTC 2016-01-16 23:02:15
    Fallback To : 3
    Text #1
    ID : 7
    Format : Timed Text
    Muxing mode : sbtl
    Codec ID : tx3g
    Duration : 1h 58mn
    Bit rate mode : Variable
    Bit rate : 3 bps
    Stream size : 2.72 KiB (0%)
    Title : Russian Forced
    Language : Russian
    Default : Yes
    Forced : Yes
    Alternate group : 2
    Encoded date : UTC 2016-01-16 23:02:04
    Tagged date : UTC 2016-01-16 23:02:14
    Subtitles For : 2,5
    Full Alternative : 9
    Text #2
    ID : 8
    Format : Timed Text
    Muxing mode : sbtl
    Codec ID : tx3g
    Duration : 1h 55mn
    Bit rate mode : Variable
    Bit rate : 4 bps
    Stream size : 3.40 KiB (0%)
    Title : Ukrainian Forced
    Language : Ukrainian
    Default : No
    Forced : Yes
    Alternate group : 2
    Encoded date : UTC 2016-01-16 23:02:04
    Tagged date : UTC 2016-01-16 23:02:14
    Subtitles For : 4
    Text #3
    ID : 9
    Format : Timed Text
    Muxing mode : sbtl
    Codec ID : tx3g
    Duration : 1h 58mn
    Bit rate mode : Variable
    Bit rate : 113 bps
    Stream size : 98.1 KiB (0%)
    Title : Russian Full-length
    Language : Russian
    Default : No
    Forced : No
    Alternate group : 2
    Encoded date : UTC 2016-01-16 23:02:04
    Tagged date : UTC 2016-01-16 23:02:14
    Subtitles For : 2,5
    Forced Alternative : 7
    Text #4
    ID : 10
    Format : Timed Text
    Muxing mode : sbtl
    Codec ID : tx3g
    Duration : 1h 54mn
    Bit rate mode : Variable
    Bit rate : 84 bps
    Stream size : 71.1 KiB (0%)
    Title : English Full-length
    Language : English
    Default : No
    Forced : No
    Alternate group : 2
    Encoded date : UTC 2016-01-16 23:02:04
    Tagged date : UTC 2016-01-16 23:02:14
    Menu #1
    00:00:00.000 : 1
    00:09:44.000 : 2
    00:18:27.000 : 3
    00:28:49.000 : 4
    00:41:49.000 : 5
    00:51:58.000 : 6
    00:59:19.000 : 7
    01:09:17.000 : 8
    01:19:53.000 : 9
    01:28:47.000 : 10
    01:39:44.000 : 11
    01:52:18.000 : 12
    01:55:11.000 : 13
    Menu #2
    ID : 11
    Codec ID : text
    Duration : 2h 2mn
    Language : English
    Encoded date : UTC 2016-01-16 23:02:18
    Tagged date : UTC 2016-01-16 23:02:18
    Menu For : 2,1
    00:00:00.000 : 1
    00:09:44.000 : 2
    00:18:27.000 : 3
    00:28:49.000 : 4
    00:41:49.000 : 5
    00:51:58.000 : 6
    00:59:19.000 : 7
    01:09:17.000 : 8
    01:19:53.000 : 9
    01:28:47.000 : 10
    01:39:44.000 : 11
    01:52:18.000 : 12
    01:55:11.000 : 13
    Bit rate mode : VBR

    Скриншоты

    -

    Релиз подготовлен для просмотра на Apple TV, iPad, iPhone, iPod Touch.
    Для просмотра данного релиза на компьютере с ОС Windows рекомендуется использовать VLC media player
    Скачать .torrent

    Скачать торрент-файл бесплатно и на максимальной скорости!

    Как скачивать? · Что такое торрент? · Рейтинг и ограничения

    !ВНИМАНИЕ!
    Сайт не распространяет и не хранит электронные версии произведений, а занимается лишь лишь предоставлением доступа к создаваемому пользователями каталогу ссылок на торрент-файлы, которые содержат только списки хеш-сумм, убедительная просьба с жалобами обращаться напрямую к пользователю. Файлы для обмена на трекере предоставлены пользователями сайта, и администрация не несёт ответственности за их содержание. Просьба не заливать файлы, защищенные авторскими правами, а также файлы нелегального содержания!


    _________________
    [Профиль] [ЛС]
    Показать сообщения:    
    Ответить на тему

    Текущее время: Сегодня, в 07:58

    Часовой пояс: GMT + 2



    Вы не можете начинать темы
    Вы не можете отвечать на сообщения
    Вы не можете редактировать свои сообщения
    Вы не можете удалять свои сообщения
    Вы не можете голосовать в опросах
    Вы не можете прикреплять файлы к сообщениям
    Вы не можете скачивать файлы