BitTorrentTracker PerecTracker.org
BitTorrentTracker PerecTracker.org
    
Регистрация  ·  Вход
 
 · 
Забыли пароль?

  • Жизнь только начинается / Серии: 1-4 из 4 (Стас Иванов) [2015, комедия, HDTV 1080i]

    Ответить на тему
     
    Автор Сообщение

    rechyn

    Создавать темы 17-Янв-2016 12:32

           

    [Цитировать]

    Жизнь только начинается

    Год выпуска: 2015
    Производство: Ярсинима, НТВ-КИНО
    Жанр: комедия
    Продолжительность: ~00:45:00 серия
    Субтитры: нет
    Режиссёр: Стас Иванов
    В ролях: Дмитрий Миллер, Анна Носатова, Максим Лагашкин, Александр Робак, Валерия Ланская, Алексей Федькин, Галина Петрова, Дмитрий Лавров (III), Михаил Гаврилов (II), Лика Рулла, Юрий Круглов, Яна Чигир, Юрий Ваксман, Анастасия Масленникова, Павел Новиков, Владимир Устюгов, Елена Масленникова, Роман Хардиков, Глеб Данилов, Павел Попов (II), Дмитрий Бедерин
    Описание: От любого из недугов исцелит любовь, — заявляет психотерапевт директору косметической компании Анне Дроновой, «заработавшей» нервное истощение в погоне за успехом и прибылью. Врач рекомендует ей «отправиться в прошлое» и найти там людей, которые ее ценят. Но оказывается, что ни ее бывший муж-депутат, ни одноклассник-музыкант, ни даже преданный поклонник уже не любят ее по-настоящему. И тогда врач убеждает Анну навестить тех, кого она ненавидит и которым хотела бы отомстить. Постепенно до бизнесвумен доходит, что месть — не самое подходящее средство для начала новой жизни, и что только прощение дает настоящее освобождение.

    Все раздачи сериала
    Sample
    Качество: HDTV 1080i
    Формат: TS
    Видео кодек: AVC
    Аудио кодек: MP2
    Видео: MPEG4 AVC Video, H264, 16:9, 1920x1080, 25 fps, ~7856kbps
    Аудио: MP2, 2 ch, 192 kbps, 16 bits, 48.0 KHz

    MI

    General
    ID : 1 (0x1)
    Complete name : E:\Жизнь только начинается 2015 HDTV 1080i\Zhizn.tolko.nachinaetsya.01.2015.HDTV.1080i.ts
    Format : MPEG-TS
    File size : 2.64 GiB
    Duration : 44mn 33s
    Overall bit rate mode : Variable
    Overall bit rate : 8 468 Kbps
    Video
    ID : 901 (0x385)
    Menu ID : 90 (0x5A)
    Format : AVC
    Format/Info : Advanced Video Codec
    Format profile : Main@L4.0
    Format settings, CABAC : Yes
    Format settings, ReFrames : 2 frames
    Format settings, GOP : M=3, N=30
    Codec ID : 27
    Duration : 44mn 33s
    Bit rate : 7 856 Kbps
    Width : 1 920 pixels
    Height : 1 080 pixels
    Display aspect ratio : 16:9
    Frame rate : 25.000 fps
    Color space : YUV
    Chroma subsampling : 4:2:0
    Bit depth : 8 bits
    Scan type : MBAFF
    Bits/(Pixel*Frame) : 0.152
    Stream size : 2.45 GiB (93%)
    Color primaries : BT.709
    Transfer characteristics : BT.709
    Matrix coefficients : BT.709
    Audio
    ID : 902 (0x386)
    Menu ID : 90 (0x5A)
    Format : MPEG Audio
    Format version : Version 1
    Format profile : Layer 2
    Codec ID : 3
    Duration : 44mn 33s
    Bit rate mode : Constant
    Bit rate : 192 Kbps
    Channel count : 2 channels
    Sampling rate : 48.0 KHz
    Compression mode : Lossy
    Stream size : 61.2 MiB (2%)
    Language : Russian

    Скриншоты

    Скачать .torrent

    Скачать торрент-файл бесплатно и на максимальной скорости!

    Как скачивать? · Что такое торрент? · Рейтинг и ограничения

    !ВНИМАНИЕ!
    Сайт не распространяет и не хранит электронные версии произведений, а занимается лишь лишь предоставлением доступа к создаваемому пользователями каталогу ссылок на торрент-файлы, которые содержат только списки хеш-сумм, убедительная просьба с жалобами обращаться напрямую к пользователю. Файлы для обмена на трекере предоставлены пользователями сайта, и администрация не несёт ответственности за их содержание. Просьба не заливать файлы, защищенные авторскими правами, а также файлы нелегального содержания!


    _________________
    [Профиль] [ЛС]
    Показать сообщения:    
    Ответить на тему

    Текущее время: Сегодня, в 18:11

    Часовой пояс: GMT + 2



    Вы не можете начинать темы
    Вы не можете отвечать на сообщения
    Вы не можете редактировать свои сообщения
    Вы не можете удалять свои сообщения
    Вы не можете голосовать в опросах
    Вы не можете прикреплять файлы к сообщениям
    Вы не можете скачивать файлы