BitTorrentTracker PerecTracker.org
BitTorrentTracker PerecTracker.org
    
Регистрация  ·  Вход
 
 · 
Забыли пароль?

  • Пятый этаж без лифта / Серии: 1-4 из 4 (Сергей Краснов) [2015, мелодрама, HDTV 1080i]

    Ответить на тему
     
    Автор Сообщение

    vlad

    Создавать темы 17-Янв-2016 12:13

           

    [Цитировать]

    Пятый этаж без лифта

    Год выпуска: 2015
    Производство: Кинокомпания "Русское"
    Жанр: мелодрама
    Продолжительность: ~00:44:00 серия
    Субтитры: нет
    Режиссёр: Сергей Краснов
    В ролях: Марина Коняшкина, Алексей Демидов, Иван Колесников, Любава Грешнова, Юлия Юрченко, Игорь Теплов, Галина Петрова, Татьяна Догилева, Игорь Скрипко, Виктор Цекало, Александр Хващинский, Виталия Корниенко
    Описание: Антон и Сима, в прошлом выпускники театрального, а ныне – успешные риэлторы. Они живут в гражданском браке, но юношескую любовь давно вытеснила привычка.Однажды в агентство обращается необычный клиент. Борис приехал из Лондона и намерен купить жильё в Москве – скромную квартиру в старой пятиэтажке. Выбор его не случаен: это место, где мужчина провёл своё счастливое детство. Как назло, владельцы наотрез отказываются продавать квартиру. Тогда предприимчивая Сима предлагает хитрый план, чтобы заставить хозяев съехать..
    Все раздачи сериала
    Sample
    Качество: HDTV 1080i
    Формат: TS
    Видео кодек: AVC
    Аудио кодек: MP2
    Видео: MPEG4 AVC Video, H264, 16:9, 1920x1080, 25 fps, ~7866 kbps
    Аудио: MP2, 2 ch, 192 kbps, 16 bits, 48.0 KHz

    MI

    General
    ID : 1 (0x1)
    Complete name : E:\Пятый этаж без лифта 2015 HDTV 1080i\Pyatiy.etazh.bez.lifta.01.2015.HDTV.1080i.ts
    Format : MPEG-TS
    File size : 5.26 GiB
    Duration : 1h 28mn
    Overall bit rate mode : Variable
    Overall bit rate : 8 479 Kbps
    Video
    ID : 2911 (0xB5F)
    Menu ID : 1009 (0x3F1)
    Format : AVC
    Format/Info : Advanced Video Codec
    Format profile : High@L4.0
    Format settings, CABAC : Yes
    Format settings, ReFrames : 4 frames
    Codec ID : 27
    Duration : 1h 28mn
    Bit rate : 7 866 Kbps
    Width : 1 920 pixels
    Height : 1 080 pixels
    Display aspect ratio : 16:9
    Frame rate : 25.000 fps
    Color space : YUV
    Chroma subsampling : 4:2:0
    Bit depth : 8 bits
    Scan type : MBAFF
    Bits/(Pixel*Frame) : 0.152
    Stream size : 4.88 GiB (93%)
    Audio
    ID : 2912 (0xB60)
    Menu ID : 1009 (0x3F1)
    Format : MPEG Audio
    Format version : Version 1
    Format profile : Layer 2
    Codec ID : 3
    Duration : 1h 28mn
    Bit rate mode : Constant
    Bit rate : 192 Kbps
    Channel count : 2 channels
    Sampling rate : 48.0 KHz
    Compression mode : Lossy
    Stream size : 122 MiB (2%)
    Language : Russian

    Скриншоты

    Скачать .torrent

    Скачать торрент-файл бесплатно и на максимальной скорости!

    Как скачивать? · Что такое торрент? · Рейтинг и ограничения

    !ВНИМАНИЕ!
    Сайт не распространяет и не хранит электронные версии произведений, а занимается лишь лишь предоставлением доступа к создаваемому пользователями каталогу ссылок на торрент-файлы, которые содержат только списки хеш-сумм, убедительная просьба с жалобами обращаться напрямую к пользователю. Файлы для обмена на трекере предоставлены пользователями сайта, и администрация не несёт ответственности за их содержание. Просьба не заливать файлы, защищенные авторскими правами, а также файлы нелегального содержания!


    _________________
    [Профиль] [ЛС]
    Показать сообщения:    
    Ответить на тему

    Текущее время: Сегодня, в 16:41

    Часовой пояс: GMT + 2



    Вы не можете начинать темы
    Вы не можете отвечать на сообщения
    Вы не можете редактировать свои сообщения
    Вы не можете удалять свои сообщения
    Вы не можете голосовать в опросах
    Вы не можете прикреплять файлы к сообщениям
    Вы не можете скачивать файлы