BitTorrentTracker PerecTracker.org
BitTorrentTracker PerecTracker.org
    
Регистрация  ·  Вход
 
 · 
Забыли пароль?

  • Аргентина / Серии: 1-4 из 4 (Сергей Крутин) [2015, криминал, мелодрама, HDTV 1080i]

    Ответить на тему
     
    Автор Сообщение

    rechyn

    Создавать темы 17-Янв-2016 12:09

           

    [Цитировать]

    Аргентина

    Год выпуска: 2015
    Производство: Кинокомпания "Пирамида"
    Жанр: криминал, мелодрама
    Продолжительность: ~00:44:00 серия
    Субтитры: нет
    Режиссёр: Сергей Крутин
    В ролях: Татьяна Арнтгольц, Константин Соловьёв, Семен Трескунов, Анатолий Кот, Константин Тополага, Александр Наумов, Артур Ваха, Михаил Тарабукин, Евгений Данчевский, Тамара Цыганова, Наталья Аралова, Ирина Богданова
    Описание: Бизнесмен Олег Басов сообщает своей помощнице Ольге Метельской, что их компания - банкрот, и поручает ей отвезти на Кипр чемоданчик с векселями на крупную сумму - его личный "страховой фонд". Ольга едет в аэропорт. Но по дороге она сталкивается с детдомовцем Лёшкой Найдёновым по прозвищу Аргентина. И ему случайно достается чемоданчик Ольги… На охоту за пропавшим чемоданчиком с векселями выходит и Басов, и «мафиози" Михаил Тучин со своими подручными, и «смотрящие» из среды беспризорников и нищих, и майор полиции Стас Лебедев. Впрочем, последний больше мечтает посадить за решетку Тучина, а чемоданчик – лишь наживка.

    Все раздачи сериала
    Sample
    Качество: HDTV 1080i
    Формат: TS
    Видео кодек: AVC
    Аудио кодек: MP2
    Видео: MPEG4 AVC Video, H264, 16:9, 1920x1080, 25 fps, ~7865 kbps
    Аудио: MP2, 2 ch, 192 kbps, 16 bits, 48.0 KHz

    MI

    General
    ID : 1 (0x1)
    Complete name : E:\Аргентина 2015 HDTV 1080i\Argentina.01.2015.HDTV.1080i.ts
    Format : MPEG-TS
    File size : 2.70 GiB
    Duration : 45mn 36s
    Overall bit rate mode : Variable
    Overall bit rate : 8 478 Kbps
    Video
    ID : 901 (0x385)
    Menu ID : 90 (0x5A)
    Format : AVC
    Format/Info : Advanced Video Codec
    Format profile : Main@L4.0
    Format settings, CABAC : Yes
    Format settings, ReFrames : 2 frames
    Codec ID : 27
    Duration : 45mn 36s
    Bit rate : 7 865 Kbps
    Width : 1 920 pixels
    Height : 1 080 pixels
    Display aspect ratio : 16:9
    Frame rate : 25.000 fps
    Color space : YUV
    Chroma subsampling : 4:2:0
    Bit depth : 8 bits
    Scan type : MBAFF
    Bits/(Pixel*Frame) : 0.152
    Stream size : 2.51 GiB (93%)
    Color primaries : BT.709
    Transfer characteristics : BT.709
    Matrix coefficients : BT.709
    Audio
    ID : 902 (0x386)
    Menu ID : 90 (0x5A)
    Format : MPEG Audio
    Format version : Version 1
    Format profile : Layer 2
    Codec ID : 3
    Duration : 45mn 36s
    Bit rate mode : Constant
    Bit rate : 192 Kbps
    Channel count : 2 channels
    Sampling rate : 48.0 KHz
    Compression mode : Lossy
    Stream size : 62.6 MiB (2%)
    Language : Russian

    Скриншоты

    Скачать .torrent

    Скачать торрент-файл бесплатно и на максимальной скорости!

    Как скачивать? · Что такое торрент? · Рейтинг и ограничения

    !ВНИМАНИЕ!
    Сайт не распространяет и не хранит электронные версии произведений, а занимается лишь лишь предоставлением доступа к создаваемому пользователями каталогу ссылок на торрент-файлы, которые содержат только списки хеш-сумм, убедительная просьба с жалобами обращаться напрямую к пользователю. Файлы для обмена на трекере предоставлены пользователями сайта, и администрация не несёт ответственности за их содержание. Просьба не заливать файлы, защищенные авторскими правами, а также файлы нелегального содержания!


    _________________
    [Профиль] [ЛС]
    Показать сообщения:    
    Ответить на тему

    Текущее время: Сегодня, в 15:03

    Часовой пояс: GMT + 2



    Вы не можете начинать темы
    Вы не можете отвечать на сообщения
    Вы не можете редактировать свои сообщения
    Вы не можете удалять свои сообщения
    Вы не можете голосовать в опросах
    Вы не можете прикреплять файлы к сообщениям
    Вы не можете скачивать файлы