BitTorrentTracker PerecTracker.org
BitTorrentTracker PerecTracker.org
    
Регистрация  ·  Вход
 
 · 
Забыли пароль?

  • Спасённая любовь / Серии: 1-4 из 4 (Наталия Средникова) [2015, Россия, Мелодрама, HDTVRip]

    Ответить на тему
     
    Автор Сообщение

    rechyn

    Создавать темы 17-Янв-2016 12:04

           

    [Цитировать]

    Спасённая любовьПроизводитель : Россия, Компания "Киновек"
    Жанр: Мелодрама
    Год выпуска: 2015
    Продолжительность: 45 мин.
    Cубтитры: нет
    Режиссер: Наталия Средникова
    В ролях: Юлия Пожидаева, Борис Миронов, Константин Спиркин, Ольга Ажажа, Андрей Арзяев, Сергей Шанин, Олег Леушин, Кристина Пакарина, Максим Карушев, Максим Макаров, Игорь Климов, Виктория Рунцова, Юрий Лигаев
    Описание: Татьяна работает следователем. График её работы не позволяет обустроить нормальную личную жизнь. Мужчинам не нравится, что её могут вызвать на службу днём и ночью, в выходные и праздники. На работе она высококлассный и востребованный специалист, а по вечерам дома грустная одинокая женщина. Всё свободное от работы время она посвящает детям своей сестры, которых очень любит. Но неожиданно Татьяна знакомится с Андреем, мужчиной который принимает её такой, какая она есть. Они влюбляются друг в друга и, кажется, что впереди их должна ждать долгая и счастливая жизнь. Но у Андрея есть какая-то тайна, связанная с гибелью его жены много лет назад. И теперь Татьяне предстоит выяснить, кто же он на самом деле и какую тайну он от неё скрывает…
    Все раздачи сериала
    Сэмпл
    Качество: HDTVRip
    Формат: AVI
    Видео кодек: XviD
    Аудио кодек: AC3
    Видео: 720x400 (1.80:1), 25 fps, XviD build 73 ~1563 kbps avg, 0.22 bit/pixel
    Аудио: 48 kHz, AC3 Dolby Digital, 2/0 (L,R) ch, ~192.00 kbps avg

    MI

    General
    Complete name : Y:\раздачи\Spas.love..2015.HDTVRip.RG.Russkie.serialy.&.Files-x.Spas.love..2015.HDTVRip.RG.Russkie.serialy.&.Files-x.avi
    Format : AVI
    Format/Info : Audio Video Interleave
    File size : 550 MiB
    Duration : 43mn 34s
    Overall bit rate : 1 765 Kbps
    Writing application : VirtualDubMod 1.5.10.3 | www.virtualdub-fr.org || (build 2550/release)
    Writing library : VirtualDubMod build 2550/release
    Video
    ID : 0
    Format : MPEG-4 Visual
    Format profile : Advanced Simple@L5
    Format settings, BVOP : 1
    Format settings, QPel : No
    Format settings, GMC : No warppoints
    Format settings, Matrix : Custom
    Codec ID : XVID
    Codec ID/Hint : XviD
    Duration : 43mn 34s
    Bit rate : 1 563 Kbps
    Width : 720 pixels
    Height : 400 pixels
    Display aspect ratio : 16:9
    Frame rate : 25.000 fps
    Color space : YUV
    Chroma subsampling : 4:2:0
    Bit depth : 8 bits
    Scan type : Progressive
    Compression mode : Lossy
    Bits/(Pixel*Frame) : 0.217
    Stream size : 487 MiB (89%)
    Writing library : XviD 73
    Audio
    ID : 1
    Format : AC-3
    Format/Info : Audio Coding 3
    Mode extension : CM (complete main)
    Format settings, Endianness : Big
    Codec ID : 2000
    Duration : 43mn 34s
    Bit rate mode : Constant
    Bit rate : 192 Kbps
    Channel(s) : 2 channels
    Channel positions : Front: L R
    Sampling rate : 48.0 KHz
    Compression mode : Lossy
    Stream size : 59.8 MiB (11%)
    Alignment : Split accross interleaves
    Interleave, duration : 40 ms (1.00 video frame)
    Interleave, preload duration : 500 ms

    Скриншоты

    Скачать .torrent

    Скачать торрент-файл бесплатно и на максимальной скорости!

    Как скачивать? · Что такое торрент? · Рейтинг и ограничения

    !ВНИМАНИЕ!
    Сайт не распространяет и не хранит электронные версии произведений, а занимается лишь лишь предоставлением доступа к создаваемому пользователями каталогу ссылок на торрент-файлы, которые содержат только списки хеш-сумм, убедительная просьба с жалобами обращаться напрямую к пользователю. Файлы для обмена на трекере предоставлены пользователями сайта, и администрация не несёт ответственности за их содержание. Просьба не заливать файлы, защищенные авторскими правами, а также файлы нелегального содержания!


    _________________
    [Профиль] [ЛС]
    Показать сообщения:    
    Ответить на тему

    Текущее время: Сегодня, в 04:06

    Часовой пояс: GMT + 2



    Вы не можете начинать темы
    Вы не можете отвечать на сообщения
    Вы не можете редактировать свои сообщения
    Вы не можете удалять свои сообщения
    Вы не можете голосовать в опросах
    Вы не можете прикреплять файлы к сообщениям
    Вы не можете скачивать файлы