Register  ·  Log in
Forgot password?

  • Судья / The Judge (Дэвид Добкин / David Dobkin) [2014, США, Драма, BDRip] Dub

    Reply to topic
    Author Message


    Post 17-Jan-2016 03:06



    -Судья / The Judge
    «Не судите, да не судимы будете»--Страна: США
    Жанр: Драма
    Год выпуска: 2014
    Продолжительность: 02:21:32-Перевод: Профессиональный (дублированный) Лицензия-Cубтитры: нет
    Оригинальная аудиодорожка: нет-Режиссер: Дэвид Добкин / David Dobkin-В ролях: Роберт Дауни мл., Роберт Дювалл, Вера Фармига, Билли Боб Торнтон, Винсент Д’Онофрио, Джереми Стронг, Дэкс Шепард, Лейтон Мистер, Кен Ховард, Эмма Трамбле-Описание: В центре истории — успешный адвокат, который приезжает в родной город на похороны матери и узнаёт, что его отца, городского судью, подозревают в убийстве. Герой решает задержаться, чтобы выяснить правду, и постепенно лучше узнаёт родственников, с которыми давно вообще никак не общался.---Качество видео: BDRip
    Формат видео: AVI-Видео: XviD build 73, 720x304 (2.35:1), 23.976 fps, ~1265 kbps avg, 0.24 bit/pixel
    Аудио: 48 kHz, AC3 Dolby Digital, 2/0 (L,R) ch, ~192 kbps-


    Complete name : D:\The Judge (2014) BDRip.avi
    Format : AVI
    Format/Info : Audio Video Interleave
    File size : 1.45 GiB
    Duration : 2h 21mn
    Overall bit rate : 1 467 Kbps
    Writing application : VirtualDubMod (build 2540/release)
    Writing library : VirtualDub build 32842/release
    ID : 0
    Format : MPEG-4 Visual
    Format profile : Advanced Simple@L5
    Format settings, BVOP : 1
    Format settings, QPel : No
    Format settings, GMC : No warppoints
    Format settings, Matrix : Custom
    Codec ID : XVID
    Codec ID/Hint : XviD
    Duration : 2h 21mn
    Bit rate : 1 265 Kbps
    Width : 720 pixels
    Height : 304 pixels
    Display aspect ratio : 2.35:1
    Frame rate : 23.976 fps
    Color space : YUV
    Chroma subsampling : 4:2:0
    Bit depth : 8 bits
    Scan type : Progressive
    Compression mode : Lossy
    Bits/(Pixel*Frame) : 0.241
    Stream size : 1.25 GiB (86%)
    Writing library : XviD 73
    ID : 1
    Format : AC-3
    Format/Info : Audio Coding 3
    Mode extension : CM (complete main)
    Format settings, Endianness : Big
    Codec ID : 2000
    Duration : 2h 21mn
    Bit rate mode : Constant
    Bit rate : 192 Kbps
    Channel(s) : 2 channels
    Channel positions : Front: L R
    Sampling rate : 48.0 KHz
    Bit depth : 16 bits
    Compression mode : Lossy
    Stream size : 194 MiB (13%)
    Alignment : Aligned on interleaves
    Interleave, duration : 42 ms (1.00 video frame)
    Interleave, preload duration : 512 ms

    Скриншот c названием фильма


    Download .torrent

    Download free and at maximum speed!

    How to Download? · What is a torrent? · Ratings and Limitations

    The site does not extend and does not store electronic(digital) versions of products, and only gives access to a reference catalogue created by users on torrent-files which contain only lists of the hash-sums, the earnest entreaty, with complaints(abuse) to access directly to the user. Files for an exchange on tracker are given by users of a site, and the administration does not bear the responsibility for their maintenance. The request to not fill in the files protected by copyrights, and also files of the illegal maintenance!

    [Profile] [PM]
    Display posts from previous:    
    Reply to topic

    The time now is: Today 19:11

    All times are GMT + 3 Hours

    You cannot post new topics in this forum
    You cannot reply to topics in this forum
    You cannot edit your posts in this forum
    You cannot delete your posts in this forum
    You cannot vote in polls in this forum
    You cannot attach files in this forum
    You cannot download files in this forum