BitTorrentTracker PerecTracker.org
BitTorrentTracker PerecTracker.org
    
Регистрация  ·  Вход
 
 · 
Забыли пароль?

  • Портовые ребята / Ребята из порта / Los chicos del puerto / The Kids from the Port (Альберто Мораис / Alberto Morais) [2013, Испания, драма, приключения, история, DVDRip] VO (PashaUp) + 2xSub (Rus, Eng) + Original Spa

    Ответить на тему
     
    Автор Сообщение

    rechyn

    Создавать темы 16-Янв-2016 17:42

           

    [Цитировать]

    Портовые ребята / Ребята из порта / Los chicos del puerto / The Kids from the Port-Страна: Испания
    Студия: Olivo Films
    Жанр: драма, приключения, история
    Год выпуска: 2013
    Продолжительность: 01:15:00
    Перевод: Одноголосый закадровый (PashaUp)
    Cубтитры: русские (rrrtttsss), английские
    Оригинальная аудиодорожка: испанская
    Режиссер: Альберто Мораис / Alberto Morais
    В ролях: Омар Крим, Бланка Баутиста, Микель Сараса, Хосе Луис де Мадарьяга, Пепа Хуан, Рикардо Эрреро, Энрик Хуэсас, Ибраим Бардиси, Серхио Кабальеро, Мигель Лаго Касаль, Ракель Эскрибано, Хосе Мануэль Хиль, Абделатиф Хвидар, Пако Мартин, Мария Хосе Перис, Эстебан Креспо Салаи
    Описание: Мигель обещает деду выполнить его просьбу: положить на могилу старого друга солдатскую куртку. Прихватив приятеля и подружку, Мигель отправляется в далекое путешествие. В поисках кладбища, трое подростков бродят по заброшенному городу на окраинах Валенсии.

    Тип релиза: DVDRip [Neon_project]
    Контейнер: AVI
    Видео: 688x384 (1.79:1), 25 fps, XviD build 50 ~1189 kbps avg, 0.18 bit/pixel
    Аудио 1: 48 kHz, AC3 Dolby Digital, 2/0 (L,R) ch, ~192 kbps (русская)
    Аудио 2: 48 kHz, AC3 Dolby Digital, 2/0 (L,R) ch, ~192 kbps (испанская) отдельно
    Формат субтитров: softsub (SRT)

    MediaInfo

    \Los.chicos.del.puerto.2013.DVDRip\Los.chicos.del.puerto.2013.DVDRip.avi General Complete name : \Los.chicos.del.puerto.2013.DVDRip\Los.chicos.del.puerto.2013.DVDRip.avi Format : AVI Format/Info : Audio Video Interleave File size : 746 MiB Duration : 1h 15mn Overall bit rate : 1 391 Kbps Movie name : Портовые ребята / Ребята из порта / Los chicos del puerto / The Kids from the Port Director : Альберто Мораис / Alberto Morais Genre : драма, приключения, история Writing application : VirtualDubMod 1.5.10.3 | www.virtualdub-fr.org || (build 2550/release) Original source form/Name : фильм Comment : Neon_project Video #0 ID : 0 Format : MPEG-4 Visual Format profile : Advanced Simple@L5 Format settings, BVOP : 1 Format settings, QPel : No Format settings, GMC : No warppoints Format settings, Matrix : Custom Codec ID : XVID Codec ID/Hint : XviD Duration : 1h 15mn Bit rate : 1 190 Kbps Width : 688 pixels Height : 384 pixels Display aspect ratio : 16:9 Frame rate : 25.000 fps Color space : YUV Chroma subsampling : 4:2:0 Bit depth : 8 bits Scan type : Progressive Compression mode : Lossy Bits/(Pixel*Frame) : 0.180 Stream size : 638 MiB (86%) Writing library : XviD 1.2.1 (UTC 2008-12-04) Audio #1 ID : 1 Format : AC-3 Format/Info : Audio Coding 3 Mode extension : CM (complete main) Format settings, Endianness : Big Codec ID : 2000 Duration : 1h 14mn Bit rate mode : Constant Bit rate : 192 Kbps Channel(s) : 2 channels Channel positions : Front: L R Sampling rate : 48.0 KHz Bit depth : 16 bits Compression mode : Lossy Stream size : 103 MiB (14%) Alignment : Split accross interleaves Interleave, duration : 40 ms (1.00 video frame) Interleave, preload duration : 500 ms

    Награды

    Скриншот c названием фильма

    Скриншоты


    Скачать .torrent

    Скачать торрент-файл бесплатно и на максимальной скорости!

    Как скачивать? · Что такое торрент? · Рейтинг и ограничения

    !ВНИМАНИЕ!
    Сайт не распространяет и не хранит электронные версии произведений, а занимается лишь лишь предоставлением доступа к создаваемому пользователями каталогу ссылок на торрент-файлы, которые содержат только списки хеш-сумм, убедительная просьба с жалобами обращаться напрямую к пользователю. Файлы для обмена на трекере предоставлены пользователями сайта, и администрация не несёт ответственности за их содержание. Просьба не заливать файлы, защищенные авторскими правами, а также файлы нелегального содержания!


    _________________
    [Профиль] [ЛС]
    Показать сообщения:    
    Ответить на тему

    Текущее время: Сегодня, в 12:51

    Часовой пояс: GMT + 2



    Вы не можете начинать темы
    Вы не можете отвечать на сообщения
    Вы не можете редактировать свои сообщения
    Вы не можете удалять свои сообщения
    Вы не можете голосовать в опросах
    Вы не можете прикреплять файлы к сообщениям
    Вы не можете скачивать файлы