BitTorrentTracker PerecTracker.org
BitTorrentTracker PerecTracker.org
    
Регистрация  ·  Вход
 
 · 
Забыли пароль?

  • Это странное имя Федерико! / Che strano chiamarsi Federico (Этторе Скола / Ettore Scola) [2013, Италия, биография, DVDRip] MVO + Original Ita

    Ответить на тему
     
    Автор Сообщение

    rechyn

    Создавать темы 16-Янв-2016 17:42

           

    [Цитировать]

    Это странное имя Федерико! / Che strano chiamarsi Federico
    Страна: Италия
    Жанр: биография
    Год выпуска: 2013
    Продолжительность: 01:30:00
    Перевод: Профессиональный (многоголосый закадровый)
    Cубтитры: нет
    Оригинальная аудиодорожка: итальянский
    Режиссер: Этторе Скола / Ettore Scola
    В ролях: Де Сантис Маурицио, Emiliano De Martino, Карло Лука Де Руджиери, Андреа Салерно, Серджо Рубини, Серджио Пьераттини, Антонелла Аттили, Vittorio Marsiglia, Vittorio Viviani, Федерико Феллини, Ernesto D'Argenio.
    Описание: Фильм-воспоминание, портрет Федерико Феллини кисти Этторе Скола, приуроченный к 20-й годовщине смерти режиссёра. Верный почитатель Мастера вспоминает, каким счастьем было знакомство с ним, рассказывает, какие чувства пробуждала феллиниевская ирония и рассуждения о том, что «жизнь — это праздник». Встречи в начале 1950-х, «развлекательные поездки» на съёмочные площадки друг друга, студии Cinecitta’, Teatro 5 и многое-многое другое на долгие годы скрепляло дружбу двух режиссёров. Начиная с 1939 г. и вплоть до почётного Оскара в 1993 Федерико оставался в глазах своего друга Этторе этаким большим Пиноккио, который, к счастью, так и не превратился в «послушного ребёнка».
    Доп. информация:
    Фильм любезно предоставил motaev
    Сэмпл: http://multi-up.com/1084408
    Качество видео: DVDRip
    Формат видео: MKV
    Видео: AVC, 1792 Кбит/сек, 720x388, 1,85:1, 25,000 кадров/сек
    Аудио: Русский: AC-3, 192 Кбит/сек, 2 канала, 48,0 КГц
    Аудио 2: Italian: AC-3, 448 Кбит/сек, 6 каналов, 48,0 КГц

    MediaInfo

    Формат : Matroska
    Версия формата : Version 4 / Version 2
    Размер файла : 1,58 Гбайт
    Продолжительность : 1 ч. 32 м.
    Общий поток : 2434 Кбит/сек
    Дата кодирования : UTC 2016-01-15 15:57:18
    Программа кодирования : mkvmerge v6.6.0 ('The Edge Of The In Between') built on Dec 1 2013 17:55:00
    Библиотека кодирования : libebml v1.3.0 + libmatroska v1.4.1
    DURATION : 01:32:55.040000000
    NUMBER_OF_FRAMES : 174220
    NUMBER_OF_BYTES : 312202240
    _STATISTICS_WRITING_APP : mkvmerge v7.2.0 ('On Every Street') 64bit built on Sep 13 2014 15:52:10
    _STATISTICS_WRITING_DATE_UTC : 2014-09-17 18:09:13
    _STATISTICS_TAGS : BPS DURATION NUMBER_OF_FRAMES NUMBER_OF_BYTES
    Видео
    Идентификатор : 1
    Формат : AVC
    Формат/Информация : Advanced Video Codec
    Профиль формата : High@L4.1
    Параметр CABAC формата : Да
    Параметр ReFrames формата : 7 кадров
    Идентификатор кодека : V_MPEG4/ISO/AVC
    Продолжительность : 1 ч. 32 м.
    Битрейт : 1792 Кбит/сек
    Ширина : 720 пикселей
    Высота : 388 пикселей
    Соотношение сторон : 1,85:1
    Режим частоты кадров : Постоянный
    Частота кадров : 25,000 кадров/сек
    Цветовое пространство : YUV
    Субдискретизация насыщенности : 4:2:0
    Битовая глубина : 8 бит
    Тип развёртки : Прогрессивная
    Бит/(Пиксели*Кадры) : 0.257
    Размер потока : 1,13 Гбайт (72%)
    Заголовок : Che Strano Chiamarsi Federico - DVDrip -Shiv@
    Библиотека кодирования : x264 core 142 r2479 dd79a61
    Настройки программы : cabac=1 / ref=7 / deblock=1:-2:-1 / analyse=0x3:0x133 / me=umh / subme=11 / psy=1 / psy_rd=1.00:0.15 / mixed_ref=1 / me_range=32 / chroma_me=1 / trellis=2 / 8x8dct=1 / cqm=0 / deadzone=21,11 / fast_pskip=0 / chroma_qp_offset=-3 / threads=12 / lookahead_threads=1 / sliced_threads=0 / nr=0 / decimate=1 / interlaced=0 / bluray_compat=0 / constrained_intra=0 / bframes=5 / b_pyramid=2 / b_adapt=2 / b_bias=0 / direct=3 / weightb=1 / open_gop=0 / weightp=2 / keyint=250 / keyint_min=25 / scenecut=40 / intra_refresh=0 / rc_lookahead=60 / rc=2pass / mbtree=1 / bitrate=1792 / ratetol=1.0 / qcomp=0.60 / qpmin=0 / qpmax=69 / qpstep=4 / cplxblur=20.0 / qblur=0.5 / vbv_maxrate=50000 / vbv_bufsize=50000 / nal_hrd=none / filler=0 / ip_ratio=1.40 / aq=1:1.00
    Default : Да
    Forced : Нет
    Аудио #1
    Идентификатор : 2
    Формат : AC-3
    Формат/Информация : Audio Coding 3
    Расширение режима : CM (complete main)
    Параметр Endianness формата : Big
    Идентификатор кодека : A_AC3
    Продолжительность : 1 ч. 32 м.
    Вид битрейта : Постоянный
    Битрейт : 448 Кбит/сек
    Каналы : 6 каналов
    Расположение каналов : Front: L C R, Side: L R, LFE
    Частота : 48,0 КГц
    Битовая глубина : 16 бит
    Метод сжатия : С потерями
    Размер потока : 298 Мбайт (18%)
    Заголовок : Italiano Ac3 5.1 chnls 448 kbps
    Язык : Italian
    Default : Нет
    Forced : Нет
    Аудио #2
    Идентификатор : 3
    Формат : AC-3
    Формат/Информация : Audio Coding 3
    Расширение режима : CM (complete main)
    Параметр Endianness формата : Big
    Идентификатор кодека : A_AC3
    Продолжительность : 1 ч. 32 м.
    Вид битрейта : Постоянный
    Битрейт : 192 Кбит/сек
    Каналы : 2 канала
    Расположение каналов : Front: L R
    Частота : 48,0 КГц
    Битовая глубина : 16 бит
    Метод сжатия : С потерями
    Размер потока : 128 Мбайт (8%)
    Заголовок : Русский
    Язык : Russian
    Default : Да
    Forced : Нет
    Меню
    00:00:00.000 : en:Chapter 1
    00:13:11.560 : en:Chapter 2
    00:17:37.880 : en:Chapter 3
    00:26:46.720 : en:Chapter 4
    00:34:20.360 : en:Chapter 5
    00:40:01.560 : en:Chapter 6
    00:49:28.640 : en:Chapter 7
    00:55:50.520 : en:Chapter 8
    01:01:27.680 : en:Chapter 9
    01:14:37.880 : en:Chapter 10
    01:18:50.280 : en:Chapter 11
    01:22:58.000 : en:Chapter 12

    Скриншот c названием фильма

    Скриншоты



    Скачать .torrent

    Скачать торрент-файл бесплатно и на максимальной скорости!

    Как скачивать? · Что такое торрент? · Рейтинг и ограничения

    !ВНИМАНИЕ!
    Сайт не распространяет и не хранит электронные версии произведений, а занимается лишь лишь предоставлением доступа к создаваемому пользователями каталогу ссылок на торрент-файлы, которые содержат только списки хеш-сумм, убедительная просьба с жалобами обращаться напрямую к пользователю. Файлы для обмена на трекере предоставлены пользователями сайта, и администрация не несёт ответственности за их содержание. Просьба не заливать файлы, защищенные авторскими правами, а также файлы нелегального содержания!


    _________________
    [Профиль] [ЛС]
    Показать сообщения:    
    Ответить на тему

    Текущее время: Сегодня, в 06:05

    Часовой пояс: GMT + 2



    Вы не можете начинать темы
    Вы не можете отвечать на сообщения
    Вы не можете редактировать свои сообщения
    Вы не можете удалять свои сообщения
    Вы не можете голосовать в опросах
    Вы не можете прикреплять файлы к сообщениям
    Вы не можете скачивать файлы