BitTorrentTracker PerecTracker.org
BitTorrentTracker PerecTracker.org
    
Регистрация  ·  Вход
 
 · 
Забыли пароль?

  • Ничего не бойся / Nothing Left to Fear (Энтони Леонарди III / Anthony Leonardi III) [2013, США, ужасы, HDRip] MVO

    Ответить на тему
     
    Автор Сообщение

    Columb

    Создавать темы 21-Дек-2013 20:21

           

    [Цитировать]

    Ничего не бойся / Nothing Left to Fear
    Страна: США
    Жанр: ужасы
    Год выпуска: 2013
    Продолжительность: 01:40:23
    Перевод: Любительский (многоголосый закадровый) [Den904 & DeadSno]
    Cубтитры: нет
    Режиссер: Энтони Леонарди III / Anthony Leonardi III
    В ролях: Клэнси Браун, Энн Хеч, Дженнифер Стоун, Итан Пек, Ребека Брандес, Джеймс Таппер, Хезер Руп, Мишель ДеВито, Дж.Д. Эвермор, Уэйн Пер
    Описание: В поисках новой работы и лучшей жизни добропорядочная семья переезжает в маленький безмятежный городок Сталл в штате Канзас. Кто бы знал, что согласно древней легенде именно в Сталле находится одно из семи врат ада, через которые время от времени на землю выбирается сам дьявол…
    Сэмпл: http://multi-up.com/934265
    Качество видео: HDRip
    Формат видео: AVI
    Видео: 720x304,23.976 fps,XviD build 50,1747 kbps avg,0.33 bit/pixel
    Аудио: 48 kHz,AC3 Dolby Digital,2/0 (L,R) ch,192 kbps

    MediaInfo

    Общее
    Полное имя : D:\Filmi\Nothing.Left.To.Fear.2013.L.HDRip.1400Mb.avi
    Формат : AVI
    Формат/Информация : Audio Video Interleave
    Размер файла : 1,37 Гбайт
    Продолжительность : 1 ч. 40 м.
    Общий поток : 1949 Кбит/сек
    Программа кодирования : VirtualDubMod 1.5.10.3 | (build 2550/release)
    Библиотека кодирования : VirtualDubMod build 2550/release
    Видео
    Идентификатор : 0
    Формат : MPEG-4 Visual
    Профиль формата : Advanced Simple@L5
    Параметр BVOP формата : 1
    Параметр QPel формата : Нет
    Параметр GMC формата : Без точки перехода
    Параметр матрицы формата : Выборочная
    Идентификатор кодека : XVID
    Идентификатор кодека/Подсказка : XviD
    Продолжительность : 1 ч. 40 м.
    Битрейт : 1748 Кбит/сек
    Ширина : 720 пикселей
    Высота : 304 пикселя
    Соотношение сторон : 2,35:1
    Частота кадров : 23,976 кадра/сек
    Цветовое пространство : YUV
    Субдискретизация насыщенности : 4:2:0
    Битовая глубина : 8 бит
    Тип развёртки : Прогрессивная
    Бит/(Пиксели*Кадры) : 0.333
    Размер потока : 1,23 Гбайт (90%)
    Библиотека кодирования : XviD 1.2.1 (UTC 2008-12-04)
    Аудио
    Идентификатор : 1
    Формат : AC-3
    Формат/Информация : Audio Coding 3
    Расширение режима : CM (complete main)
    Параметр Endianness формата : Big
    Идентификатор кодека : 2000
    Продолжительность : 1 ч. 40 м.
    Вид битрейта : Постоянный
    Битрейт : 192 Кбит/сек
    Каналы : 2 канала
    Расположение каналов : Front: L R
    Частота : 48,0 КГц
    Битовая глубина : 16 бит
    Размер потока : 138 Мбайт (10%)
    Выравнивание : Разделение по промежуткам
    Продолжительность промежутка : 42 мс. (1,00 видеокадр)
    Время предзагрузки промежутка : 500 мс.

    Скриншот c названием фильма

    Скриншоты

    Скачать .torrent

    Скачать торрент-файл бесплатно и на максимальной скорости!

    Как скачивать? · Что такое торрент? · Рейтинг и ограничения

    !ВНИМАНИЕ!
    Сайт не распространяет и не хранит электронные версии произведений, а занимается лишь лишь предоставлением доступа к создаваемому пользователями каталогу ссылок на торрент-файлы, которые содержат только списки хеш-сумм, убедительная просьба с жалобами обращаться напрямую к пользователю. Файлы для обмена на трекере предоставлены пользователями сайта, и администрация не несёт ответственности за их содержание. Просьба не заливать файлы, защищенные авторскими правами, а также файлы нелегального содержания!

    [Профиль] [ЛС]

    -746

    Создавать темы 19-Апр-2014 00:00 (спустя 3 месяца 28 дней)

           

    Топик был перенесен из форума Зарубежные Фильмы (Новинки) в форум Фильмы 2011-2013

    -sasha2006 

    _________________
    Как бы ты высоко не летал, не забывай, с кем ты ползал..
     
    Показать сообщения:    
    Ответить на тему

    Текущее время: Сегодня, в 11:58

    Часовой пояс: GMT + 2



    Вы не можете начинать темы
    Вы не можете отвечать на сообщения
    Вы не можете редактировать свои сообщения
    Вы не можете удалять свои сообщения
    Вы не можете голосовать в опросах
    Вы не можете прикреплять файлы к сообщениям
    Вы не можете скачивать файлы