BitTorrentTracker PerecTracker.org
BitTorrentTracker PerecTracker.org
    
Регистрация  ·  Вход
 
 · 
Забыли пароль?

  • VA - C Новым Годом !!! - Коллекция (10LP) - 1973 - 1989, FLAC (image+.cue)

    Ответить на тему
     
    Автор Сообщение

    rechyn

    Создавать темы 20-Дек-2013 22:14

           

    [Цитировать]

    VA - C Новым Годом !!! - Коллекция (10LP) 1973 - 1989-Лейбл
    Жанр: Pop
    Аудио кодек: FLAC
    Тип рипа: image+.cue
    Формат записи: 32/192
    Формат раздачи: 24/192
    Оцифровка выполнена: nikon200

    VA - С Новым Годом! 1973 (Д035053-Д034806)

    Год выпуска: 1973
    Лейбл: Мелодия
    Каталожный номер: Д035053-Д034806
    Страна-производитель: СССР
    Код класса состояния винила: VG+
    Устройство воспроизведения: Technics - SL2000
    Головка звукоснимателя: Audio-Technica AT440MLa
    Предварительный усилитель: Ламповый
    АЦП: ESI Juli@
    Программа-оцифровщик: Adobe Audition CS6
    Обработка: Паузы и крупные щелчки вручную.
    Треклист:
    Сторона 1
    A1. Звуки джаза (А.Цфасман) Ансамбль "Мелодия"
    A2. Боюсь (Я.Френкель - Р.Гамзатов) В.Будилин
    A3. Червона рута (музыка и слова В.Ивасюка) С.Ротару
    A4. Березовый сок (В.Баснер - М.Матусовский) ВИА "Песняры"
    A5. Холостяк (М.Жванецкий) А.Райкин
    A6. Зимняя любовь (А.Бабаджанян - Р.Рождественский) М.Магомаев
    Сторона 2
    B7. Дрозды (В.Шаинский - С.Островой) ВИА "Песняры"
    B8. Если любишь ты (Ю.Антонов - Л.Дербенев) С.Резанова
    B9. Разговор со счастьем (А.Зацепин - Л.Дербенев) В.Золотухин
    B10. Полынь (А.Пахмутова - Р.Рождественский) Л.Зыкина
    B11. Сядь со мной рядом (С.Кац - А.Коваленков и Д.Толмачев) ВИА "Поющие сердца"
    B12. Белая береза ( В.Шаинский - Л.Овсянников) Л.Лещенко

    ОБЩЕЕ ВРЕМЯ ЗВУЧАНИЯ:
    40:15

    CUE File

    REM GENRE Pop
    REM DATE © 1973
    REM COMMENT RUTRACKER.ORG - VINIL RIP & NIKON200
    PERFORMER "VA - С Новым Годом!"
    TITLE "LP Mono АОЛЗГ Д035053 - Д034806"
    FILE "Д035053-Д034806.flac" WAVE
    TRACK 01 AUDIO
    TITLE "Звуки джаза (А.Цфасман)"
    PERFORMER "Ансамбль Мелодия"
    INDEX 01 00:00:00
    TRACK 02 AUDIO
    TITLE "Боюсь (Я.Френкель - Р.Гамзатов)"
    PERFORMER "В.Будилин"
    INDEX 01 01:47:00
    TRACK 03 AUDIO
    TITLE "Червона рута (музыка и слова В.Ивасюка)"
    PERFORMER "С.Ротару"
    INDEX 01 04:55:00
    TRACK 04 AUDIO
    TITLE "Березовый сок (В.Баснер - М.Матусовский)"
    PERFORMER "ВИА Песняры"
    INDEX 01 07:53:00
    TRACK 05 AUDIO
    TITLE "Холостяк (М.Жванецкий) А.Райкин"
    PERFORMER "А.Райкин"
    INDEX 01 12:01:00
    TRACK 06 AUDIO
    TITLE "Зимняя любовь (А.Бабаджанян - Р.Рождественский)"
    PERFORMER "М.Магомаев"
    INDEX 01 15:30:00
    TRACK 07 AUDIO
    TITLE "Дрозды (В.Шаинский - С.Островой)"
    PERFORMER "ВИА Песняры"
    INDEX 01 19:45:00
    TRACK 08 AUDIO
    TITLE "Если любишь ты (Ю.Антонов - Л.Дербенев)"
    PERFORMER "С.Резанова"
    INDEX 01 25:44:00
    TRACK 09 AUDIO
    TITLE "Разговор со счастьем (А.Зацепин - Л.Дербенев)"
    PERFORMER "В.Золотухин"
    INDEX 01 28:17:00
    TRACK 10 AUDIO
    TITLE "Полынь (А.Пахмутова - Р.Рождественский)"
    PERFORMER "Л.Зыкина"
    INDEX 01 30:59:00
    TRACK 11 AUDIO
    TITLE "Сядь со мной рядом (С.Кац - А.Коваленков и Д.Толмачев)"
    PERFORMER "ВИА Поющие сердца"
    INDEX 01 33:44:00
    TRACK 12 AUDIO
    TITLE "Белая береза ( В.Шаинский - Л.Овсянников)"
    PERFORMER "Л.Лещенко"
    INDEX 01 36:50:00

    Уровни, Спектр, АЧХ

    VA - С Новым Годом! 1977 (С60 09277-78)

    Год выпуска: 1977
    Лейбл: Мелодия
    Каталожный номер: С60 09277-78
    Страна-производитель: СССР
    Код класса состояния винила: VG+
    Устройство воспроизведения: Technics - SL2000
    Головка звукоснимателя: Audio-Technica AT440MLa
    Предварительный усилитель: Ламповый
    АЦП: ESI Juli@
    Программа-оцифровщик: Adobe Audition CS6
    Обработка: Паузы и крупные щелчки вручную.
    Треклист:
    Сторона 1
    A1. Улыбка (В.Шаинский, обработка А.Бухгольца) Ансамбль "Мелодия"
    A2. Все, что есть у меня (В.Добрынин - Л.Дербенев) Ансамбль "Самоцветы"
    A3. Город огромный (А.Зацепин - Л.Дербенев) К.Готт
    A4. Я вижу тебя (И.Якушенко - Л.Ошанин) Ансамбль "Лейся, песня"
    A5. Последний лист (Р.Паулс - Я.Петерс) М.Вилцане и О.Гринберг
    A6. Первое свидание (В.Мигуля - М.Рябинин) Ансамбль "Самоцветы"

    Сторона 2

    B7. Чудо-песенка (Л.Лядова, обработка Б.Фрумкина) Ансамбль "Мелодия"
    B8. По морозу, по зиме (З.Бинкин - М.Танич) Ансамбль "Самоцветы"
    B9. Далек то день (Р.Майоров - А.Жигарев) Л.Барашков
    B10. Кони-звери (М.Блантер - И.Сельвинский) Н.Бригвадзе
    B11. Всегда и снова (М.Фрадкин - Е.Долматовский) Ансамбль "Поющие, сердца"

    ОБЩЕЕ ВРЕМЯ ЗВУЧАНИЯ:
    39:40

    CUE File

    REM GENRE Pop
    REM DATE © 1977
    REM COMMENT RUTRACKER.ORG - VINIL RIP & NIKON200
    PERFORMER "VA - С Новым Годом!"
    TITLE "LP Stereo АОЛЗГ С60 09277-78"
    FILE "С60 09277-78.flac" WAVE
    TRACK 01 AUDIO
    TITLE "Улыбка (В.Шаинский, обработка А.Бухгольца)"
    PERFORMER "Ансамбль Мелодия"
    INDEX 01 00:00:00
    TRACK 02 AUDIO
    TITLE "Все, что есть у меня (В.Добрынин - Л.Дербенев)"
    PERFORMER "Ансамбль Самоцветы"
    INDEX 01 02:54:00
    TRACK 03 AUDIO
    TITLE "Город огромный (А.Зацепин - Л.Дербенев)"
    PERFORMER "К.Готт"
    INDEX 01 07:18:00
    TRACK 04 AUDIO
    TITLE "Я вижу тебя (И.Якушенко - Л.Ошанин)"
    PERFORMER "Ансамбль Лейся песня"
    INDEX 01 11:11:00
    TRACK 05 AUDIO
    TITLE "Последний лист (Р.Паулс - Я.Петерс)"
    PERFORMER "М.Вилцане и О.Гринберг"
    INDEX 01 13:40:00
    TRACK 06 AUDIO
    TITLE "Первое свидание (В.Мигуля - М.Рябинин)"
    PERFORMER "Ансамбль Самоцветы"
    INDEX 01 17:06:00
    TRACK 07 AUDIO
    TITLE "Чудо-песенка (Л.Лядова, обработка Б.Фрумкина)"
    PERFORMER "Мелодия"
    INDEX 01 20:24:00
    TRACK 08 AUDIO
    TITLE "По морозу, по зиме (З.Бинкин - М.Танич)"
    PERFORMER "Ансамбль Самоцветы"
    INDEX 01 24:50:00
    TRACK 09 AUDIO
    TITLE "Далек то день (Р.Майоров - А.Жигарев)"
    PERFORMER "Л.Барашков"
    INDEX 01 28:13:00
    TRACK 10 AUDIO
    TITLE "Кони-звери (М.Блантер - И.Сельвинский)"
    PERFORMER "Н.Бригвадзе"
    INDEX 01 30:56:00
    TRACK 11 AUDIO
    TITLE "Всегда и снова (М.Фрадкин - Е.Долматовский)"
    PERFORMER "Ансамбль Поющие сердца"
    INDEX 01 35:06:00

    Уровни, Спектр, АЧХ

    VA - С Новым Годом! 1978 (С60 10777-78)

    Год выпуска: 1978
    Лейбл: Мелодия
    Каталожный номер: С60 10777-78
    Страна-производитель: СССР
    Код класса состояния винила: VG+
    Устройство воспроизведения: Technics - SL2000
    Головка звукоснимателя: Audio-Technica AT440MLa
    Предварительный усилитель: Ламповый
    АЦП: ESI Juli@
    Программа-оцифровщик: Adobe Audition CS6
    Обработка: Паузы и крупные щелчки вручную.
    Треклист:
    Сторона 1
    A1. Годы не стареют (А.Мажуков - М.Танич) Л.Лещенко
    A2. Зимнее танго (О.Строк) Ансамбль "Мелодия"
    A3. Фотографии любимых (Д.Тухманов - В.Харитонов) Я.Йоала
    A4. Вальс (И.Дунаевский) Симфонический оркестр ЦТ и ВР
    A5. В первый раз (Я.Френкель - И.Шаферан) "Метроном"
    A6. Лицо в ладонях (А.Днепров - И.Кохановский) "Поющие сердца"
    Сторона 2
    B7. Где же ты была (В.Добрынин - Л.Дербенев) "Лейся, песня"
    B8. Татьянин день (Ю.Саульский - Н.Олев) Б.Киров
    B9. Отрада (М.Шишкин) И.Кобзон
    B10. Белым снегом (Р.Майоров - В.Харитонов) "Пламя"
    B11. Все сбудется (А.Хаславский - Я.Гальперин) "Здравствуй, песня"
    B12. Когда весна придет опять (О.Строк) Ансамбль "Мелодия"

    ОБЩЕЕ ВРЕМЯ ЗВУЧАНИЯ:
    39:03

    CUE File

    REM GENRE Pop
    REM DATE © 1978
    REM COMMENT RUTRACKER.ORG - VINIL RIP & NIKON200
    PERFORMER "VA - С Новым Годом!"
    TITLE "LP Stereo АОЛЗГ С60 10777-78"
    FILE "С60 10777-78.flac" WAVE
    TRACK 01 AUDIO
    TITLE "Годы не стареют (А.Мажуков - М.Танич)"
    PERFORMER "Л.Лещенко"
    INDEX 01 00:00:00
    TRACK 02 AUDIO
    TITLE "Зимнее танго (О.Строк)"
    PERFORMER "Ансамбль Мелодия"
    INDEX 01 04:09:00
    TRACK 03 AUDIO
    TITLE "Фотографии любимых (Д.Тухманов - В.Харитонов)"
    PERFORMER "Я.Йоала"
    INDEX 01 06:56:00
    TRACK 04 AUDIO
    TITLE "Вальс (И.Дунаевский)"
    PERFORMER "Симфонический оркестр ЦТ и ВР"
    INDEX 01 10:54:00
    TRACK 05 AUDIO
    TITLE "В первый раз (Я.Френкель - И.Шаферан)"
    PERFORMER "Метроном"
    INDEX 01 13:19:00
    TRACK 06 AUDIO
    TITLE "Лицо в ладонях (А.Днепров - И.Кохановский)"
    PERFORMER "Поющие сердца"
    INDEX 01 16:19:00
    TRACK 07 AUDIO
    TITLE "Где же ты была (В.Добрынин - Л.Дербенев)"
    PERFORMER "Лейся, песня"
    INDEX 01 19:45:00
    TRACK 08 AUDIO
    TITLE "Татьянин день (Ю.Саульский - Н.Олев)"
    PERFORMER "Б.Киров"
    INDEX 01 23:22:00
    TRACK 09 AUDIO
    TITLE "Отрада (М.Шишкин)"
    PERFORMER "И.Кобзон"
    INDEX 01 27:09:00
    TRACK 10 AUDIO
    TITLE "Белым снегом (Р.Майоров - В.Харитонов)"
    PERFORMER "Пламя"
    INDEX 01 29:51:00
    TRACK 11 AUDIO
    TITLE "Все сбудется (А.Хаславский - Я.Гальперин)"
    PERFORMER "Здравствуй, песня"
    INDEX 01 33:03:00
    TRACK 12 AUDIO
    TITLE "Когда весна придет опять (О.Строк)"
    PERFORMER "Ансамбль Мелодия"
    INDEX 01 35:56:00

    Уровни, Спектр, АЧХ

    VA - С Новым Годом! 1979 (С60 12747-48)

    Год выпуска: 1979
    Лейбл: Мелодия
    Каталожный номер: С60 12747-48
    Страна-производитель: СССР
    Код класса состояния винила: VG+
    Устройство воспроизведения: Technics - SL2000
    Головка звукоснимателя: Audio-Technica AT440MLa
    Предварительный усилитель: Ламповый
    АЦП: ESI Juli@
    Программа-оцифровщик: Adobe Audition CS6
    Обработка: Паузы и крупные щелчки вручную.
    Треклист:
    Сторона 1
    A1. Раз, два, три - хорошая погода (В. Емельянов - Л. Завальнюк) "Рапсодия"
    A2. Вечерние встречи, танго (С. Туликов) ансамбль "Мелодия"
    A3. Просто (А. Пугачева — И.Резник) А. Пугачева
    A4. Привет (Паллавичини, С. Кутуньо, П. Лозито — рус. текст И. Кохановского) Л. Лещенко
    A5. Очи черные (обр. Г. Гараняна) ансамбль "Мелодия"
    A6. Златые горы (русская нар. песня) И. Кобзон
    Сторона 2
    B7. Мы с тобою танцуем (Д. Тухманов — В. Харитонов) И. Иванов
    B8. Венский вальс (Дж. Месколли) струнный ансамбль п/у Розенбергса
    B9. Только любовь (А. Хаславский — И. Шаферан) "Здравствуй, песня"
    B10. Вот мчится тройка (обр. А. Гусейнова) ансамбль "Мелодия"
    B11. Тот город (Р. Паулс — Я. Петерс, русский текст О. Гаджикасимова) Р. Ибрагимов
    B12. Летом и зимой (Е. Мартынов — А. Дементьев) Е. Мартынов
    ОБЩЕЕ ВРЕМЯ ЗВУЧАНИЯ: 39:15

    CUE File

    REM GENRE Pop
    REM DATE © 1979
    REM COMMENT RUTRACKER.ORG - VINIL RIP & NIKON200
    PERFORMER "VA - С Новым Годом!"
    TITLE "LP Stereo АОЛЗГ C60 12747-48"
    FILE "C60 12747-48.flac" WAVE
    TRACK 01 AUDIO
    TITLE "Раз, два, три - хорошая погода (В.Емельянов - Л.Завальнюк)"
    PERFORMER "Ансамбль Рапсодия"
    INDEX 01 00:00:00
    TRACK 02 AUDIO
    TITLE "Вечерние встречи, танго (С.Туликов)"
    PERFORMER "Ансамбль Мелодия"
    INDEX 01 02:23:00
    TRACK 03 AUDIO
    TITLE "Просто (А. Пугачева — И.Резник)"
    PERFORMER "А. Пугачева"
    INDEX 01 04:46:00
    TRACK 04 AUDIO
    TITLE "Привет (Паллавичини, Т.Кутуньо, П.Лозито — рус. текст И.Кохановского)"
    PERFORMER "Л. Лещенко"
    INDEX 01 08:51:00
    TRACK 05 AUDIO
    TITLE "Очи черные (обр. Г.Гараняна)"
    PERFORMER "Ансамбль Мелодия"
    INDEX 01 12:48:00
    TRACK 06 AUDIO
    TITLE "Златые горы (русская нар. песня)"
    PERFORMER "И. Кобзон"
    INDEX 01 16:50:00
    TRACK 07 AUDIO
    TITLE "Мы с тобою танцуем (Д. Тухманов — В.Харитонов)"
    PERFORMER "И. Иванов"
    INDEX 01 19:51:00
    TRACK 08 AUDIO
    TITLE "Венский вальс (Дж. Месколли)"
    PERFORMER "Струнный ансамбль п/у Розенбергса"
    INDEX 01 23:08:00
    TRACK 09 AUDIO
    TITLE "Только любовь (А. Хаславский — И.Шаферан)"
    PERFORMER "Ансамбль Здравствуй, песня"
    INDEX 01 25:33:00
    TRACK 10 AUDIO
    TITLE "Вот мчится тройка (обр. А.Гусейнова)"
    PERFORMER "Ансамбль Мелодия"
    INDEX 01 29:15:00
    TRACK 11 AUDIO
    TITLE "Тот город (Р. Паулс — Я.Петерс, русский текст О. Гаджикасимова)"
    PERFORMER "Р. Ибрагимов"
    INDEX 01 32:21:00
    TRACK 12 AUDIO
    TITLE "Летом и зимой (Е. Мартынов — А.Дементьев)"
    PERFORMER "Е. Мартынов"
    INDEX 01 35:57:00

    Уровни, Спектр, АЧХ

    VA - С Новым Годом! 1981 (C60 16761-62)

    Год выпуска: 1981
    Лейбл: Мелодия
    Каталожный номер: C60 16761-62
    Страна-производитель: СССР
    Код класса состояния винила: VG+
    Устройство воспроизведения: Technics - SL2000
    Головка звукоснимателя: Audio-Technica AT440MLa
    Предварительный усилитель: Ламповый
    АЦП: ESI Juli@
    Программа-оцифровщик: Adobe Audition CS6
    Обработка: Паузы и крупные щелчки вручную.
    Треклист:
    Сторона 1
    A1. Дороги (Р.Бабаев) Ансамбль "Мелодия"
    A2. Про баню (А.Суханов - С.Маршак) А.Суханов
    A3. Куда уехал цирк (В.Быстряков - В.Левин) С.Дидоренко
    A4. Только раз бывают в жизни встречи (Б.Фомин - П.Герман) Б.Штоколов
    A5. Держи меня, соломинка (А.Пугачева - В.Шленский) А.Пугачева
    Сторона 2
    B6. Вдоль по улице метелица метет (А.Варламов, обр. Л.Канторовича - слова народные) Н.Гедда
    B7. Цыганочка (Музыка народная) Ф.Гойя
    B8. Мои года (Г.Мовсесян - Р.Рождественский) В.Кикабидзе
    B9. Русская метелица (Г.Подэльский - Л.Ошанин) Л.Зыкина
    B10. Русские березы (Е.Ширяев - Д.Нигматуллина) М.Тошматов
    B11. Любовь настала (Р.Паулс, обр. Каравелли) Оркестр Каравелли
    ОБЩЕЕ ВРЕМЯ ЗВУЧАНИЯ: 37:50

    CUE File

    REM GENRE Pop
    REM DATE © 1981
    REM COMMENT RUTRACKER.ORG - VINIL RIP & NIKON200
    PERFORMER "VA - С Новым Годом!"
    TITLE "LP Stereo ЛЗГ C60 16761-2"
    FILE "C60 16761-2.flac" WAVE
    TRACK 01 AUDIO
    TITLE "Дороги (Р.Бабаев)"
    PERFORMER "Ансамбль Мелодия"
    INDEX 01 00:00:00
    TRACK 02 AUDIO
    TITLE "Про баню (А.Суханов - С.Маршак)"
    PERFORMER "А.Суханов"
    INDEX 01 02:53:00
    TRACK 03 AUDIO
    TITLE "Куда уехал цирк (В.Быстряков - В.Левин)"
    PERFORMER "С.Дидоренко"
    INDEX 01 06:00:00
    TRACK 04 AUDIO
    TITLE "Только раз бывают в жизни встречи (Б.Фомин - П.Герман)"
    PERFORMER "Б.Штоколов"
    INDEX 01 10:09:00
    TRACK 05 AUDIO
    TITLE "Держи меня, соломинка (А.Пугачева - В.Шленский)"
    PERFORMER "А.Пугачева"
    INDEX 01 14:44:00
    TRACK 06 AUDIO
    TITLE "Вдоль по улице метелица метет (А.Варламов, обр. Л.Канторовича - слова народные)"
    PERFORMER "Н.Гедда"
    INDEX 01 19:01:00
    TRACK 07 AUDIO
    TITLE "Цыганочка (Музыка народная)"
    PERFORMER "Ф.Гойя"
    INDEX 01 21:16:00
    TRACK 08 AUDIO
    TITLE "Мои года (Г.Мовсесян - Р.Рождественский)"
    PERFORMER "В.Кикабидзе"
    INDEX 01 23:54:00
    TRACK 09 AUDIO
    TITLE "Русская метелица (Г.Подэльский - Л.Ошанин)"
    PERFORMER "Л.Зыкина"
    INDEX 01 27:00:00
    TRACK 10 AUDIO
    TITLE "Русские березы (Е.Ширяев - Д.Нигматуллина)"
    PERFORMER "М.Тошматов"
    INDEX 01 29:11:00
    TRACK 11 AUDIO
    TITLE "Любовь настала (Р.Паулс, обр. Каравелли)"
    PERFORMER "Оркестр Каравелли"
    INDEX 01 32:58:00

    Уровни, Спектр, АЧХ

    VA - С Новым Годом! 1985 (С60 21991 007)

    Год выпуска: 1985
    Лейбл: Мелодия
    Каталожный номер: С60 21991 007
    Страна-производитель: СССР
    Код класса состояния винила: VG+
    Устройство воспроизведения: Technics - SL2000
    Головка звукоснимателя: Audio-Technica AT440MLa
    Предварительный усилитель: Ламповый
    АЦП: ESI Juli@
    Программа-оцифровщик: Adobe Audition CS6
    Обработка: Паузы и крупные щелчки вручную.
    Треклист:
    Сторона 1
    A1. Вальс из к/ф "Анна Павлова" (Е. Дога) - Ленинградский концертный оркестр п/у А. Бадхена
    A2. Расскажите, птицы (Музыка и слова И. Николаева) - А. Пугачева
    A3. Созвездие гончих псов (И. Якушенко - И. Шаферан) - Группа "Диалог"
    A4. По полю, полю (Русская народная песня) - Ансамбль "Ариэль"
    A5. Мотылек (А. Морозов - С. Романов) - В. Леонтьев
    Сторона 2
    B6. Дрессировщик (Ю. Маликов, В. Пресняков - И. Шаферан) - М. Боярский
    B7. На улице Каштановой (Ю. Антонов - И. Шаферан) - Ю. Антонов
    B8. Танец утят (Французская народная песня) - Ансамбль фольклорной музыки п/у В. Назарова
    B9. Не уезжай ты, мой голубчик (Старинный романс) - Т. Филимонова
    B10. Мы желаем счастья вам! (С. Намин - И. Шаферан) - Группа С. Намина
    ОБЩЕЕ ВРЕМЯ ЗВУЧАНИЯ: 37:15

    CUE File

    REM GENRE Pop
    REM DATE © 1985
    REM COMMENT RUTRACKER.ORG - VINIL RIP & NIKON200
    PERFORMER "VA - С Новым Годом!"
    TITLE "LP Stereo АОЛЗГ С60 21991 007"
    FILE "С60 21991 007.flac" WAVE
    TRACK 01 AUDIO
    TITLE "Вальс из к/ф Анна Павлова (Е. Дога)"
    PERFORMER "Ленинградский концертный оркестр п/у А. Бадхена"
    INDEX 01 00:00:00
    TRACK 02 AUDIO
    TITLE "Расскажите, птицы (Музыка и слова И. Николаева)"
    PERFORMER "А. Пугачева"
    INDEX 01 03:22:00
    TRACK 03 AUDIO
    TITLE "Созвездие гончих псов (И. Якушенко - И. Шаферан)"
    PERFORMER "Группа Диалог"
    INDEX 01 09:46:00
    TRACK 04 AUDIO
    TITLE "По полю, полю (Русская народная песня)"
    PERFORMER "Ансамбль Ариэль"
    INDEX 01 13:51:00
    TRACK 05 AUDIO
    TITLE "Мотылек (А. Морозов - С. Романов)"
    PERFORMER "В. Леонтьев"
    INDEX 01 16:15:00
    TRACK 06 AUDIO
    TITLE "Дрессировщик (Ю. Маликов, В. Пресняков - И. Шаферан)"
    PERFORMER "М. Боярский"
    INDEX 01 19:28:00
    TRACK 07 AUDIO
    TITLE "На улице Каштановой (Ю. Антонов - И. Шаферан)"
    PERFORMER "Ю. Антонов"
    INDEX 01 23:26:00
    TRACK 08 AUDIO
    TITLE "Танец утят (Французская народная песня)"
    PERFORMER "Ансамбль фольклорной музыки п/у В. Назарова"
    INDEX 01 27:23:00
    TRACK 09 AUDIO
    TITLE "Не уезжай ты, мой голубчик (Старинный романс)"
    PERFORMER "Т. Филимонова"
    INDEX 01 30:28:00
    TRACK 10 AUDIO
    TITLE "Мы желаем счастья вам! (С. Намин - И. Шаферан)"
    PERFORMER "Группа С. Намина"
    INDEX 01 33:52:00

    Уровни, Спектр, АЧХ

    VA - С Новым Годом! 1986 (C60 24705 001)

    Год выпуска: 1986
    Лейбл: Мелодия
    Каталожный номер: C60 24705 001
    Страна-производитель: СССР
    Код класса состояния винила: Exellent
    Устройство воспроизведения: Technics - SL2000
    Головка звукоснимателя: Audio-Technica AT440MLa
    Предварительный усилитель: Ламповый
    АЦП: ESI Juli@
    Программа-оцифровщик: Adobe Audition CS6
    Обработка: Паузы и крупные щелчки вручную.
    Треклист:
    Сторона 1
    A1. Карнавал (В.Назаров - А.Перова, А.Шишов) А.Ф.М. п/у В.Назарова
    A2. Никударики (В.Литвиенко - С.Кирсанов) группа "Диалог"
    A3. Белые цветы (В.Кузьмин - Т.Артемьева) А.Пугачева
    A4. Гиподинамия (Р.Паулс - И.Резник) В.Леонтьев
    A5. Рыбка в банке (музыка и слова А.Макаревича) рок-группа "Машина времени"
    Сторона 2
    B6. Белая панама (Ю.Чернавский - Л.Дербенев) А.Пугачева
    B7. Динозаврики (В.Резников - А.Рициман) Сергей и Михаил Боярские
    B8. Если метель... (К.Кельми - М.Пушкина) рок-группа "Рок-ателье"
    B9. Лаванда (В.Матецкий - М.Шабров) С.Ротару и Я.Йоала
    ОБЩЕЕ ВРЕМЯ ЗВУЧАНИЯ: 38:27

    CUE File

    REM GENRE Pop
    REM DATE © 1986
    REM COMMENT RUTRACKER.ORG - VINIL RIP & NIKON200
    PERFORMER "VA - С Новым Годом!"
    TITLE "LP Stereo МОЗГ С60 24705 001"
    FILE "С60 24705 001.flac" WAVE
    TRACK 01 AUDIO
    TITLE "Карнавал (В.Назаров - А.Перова, А.Шишов)"
    PERFORMER "А.Ф.М. п/у В.Назарова"
    INDEX 01 00:00:00
    TRACK 02 AUDIO
    TITLE "Никударики (В.Литвиенко - С.Кирсанов)"
    PERFORMER "группа Диалог"
    INDEX 01 05:04:00
    TRACK 03 AUDIO
    TITLE "Белые цветы (В.Кузьмин - Т.Артемьева)"
    PERFORMER "А.Пугачева"
    INDEX 01 09:46:00
    TRACK 04 AUDIO
    TITLE "Гиподинамия (Р.Паулс - И.Резник)"
    PERFORMER "В.Леонтьев"
    INDEX 01 13:30:00
    TRACK 05 AUDIO
    TITLE "Рыбка в банке (музыка и слова А.Макаревича)"
    PERFORMER "рок-группа Машина времени"
    INDEX 01 17:12:00
    TRACK 06 AUDIO
    TITLE "Белая панама (Ю.Чернавский - Л.Дербенев)"
    PERFORMER "А.Пугачева"
    INDEX 01 20:12:00
    TRACK 07 AUDIO
    TITLE "Динозаврики (В.Резников - А.Рициман)"
    PERFORMER "Сергей и Михаил Боярские"
    INDEX 01 25:34:00
    TRACK 08 AUDIO
    TITLE "Если метель... (К.Кельми - М.Пушкина)"
    PERFORMER "рок-группа Рок-ателье"
    INDEX 01 29:42:00
    TRACK 09 AUDIO
    TITLE "Лаванда (В.Матецкий - М.Шабров)"
    PERFORMER "С.Ротару и Я.Йоала"
    INDEX 01 33:34:00

    Уровни, Спектр, АЧХ

    VA - С Новым Годом! 1988 (C60 26363 002)

    Год выпуска: 1988
    Лейбл: Мелодия
    Каталожный номер: C60 26363 002
    Страна-производитель: СССР
    Код класса состояния винила: Exellent
    Устройство воспроизведения: Technics - SL2000
    Головка звукоснимателя: Audio-Technica AT440MLa
    Предварительный усилитель: Ламповый
    АЦП: ESI Juli@
    Программа-оцифровщик: Adobe Audition CS6
    Обработка: Паузы и крупные щелчки вручную.
    Треклист:
    Сторона 1
    A1. Новогодние игрушки (А.Харалов - А.Дементьев) А.Харалов
    A2. Ты (И.Крутой - И.Шаферан) А.Серов
    A3. Почему? (Ю.Чернавский - Г.Кантор) А.Глызин
    A4. Кроссворд (М.Гришунов - И.Севрюгина) группа "Кроссворд"
    A5. Снежная королева (К.Кельми - А.Макаревич) К.Кельми
    Сторона 2
    B6. Яблоги на снегу (М.Муромов - А.Дементьев) М.Муромов
    B7. Провинция (И.Словесник - И.Резник) И.Словесник
    B8. Гадалка (А.Шкуратов - Ю.Савельев) группа "Аттракцион"
    B9. Один на льдине (В.Малежик - М.Журкин) В.Малежик
    B10. Почему мы не вместе (В.Добрынин - В.Вишневский) О.Зарубина и Е.Головин
    ОБЩЕЕ ВРЕМЯ ЗВУЧАНИЯ: 39:41

    CUE File

    REM GENRE Pop
    REM DATE © 1988
    REM COMMENT RUTRACKER.ORG - VINIL RIP & NIKON200
    PERFORMER "VA - С Новым Годом!"
    TITLE "LP Stereo TЗГ C60 26363 002"
    FILE "C60 26363 002.flac" WAVE
    TRACK 01 AUDIO
    TITLE "Новогодние игрушки (А.Харалов - А.Дементьев)"
    PERFORMER "А.Харалов"
    INDEX 01 00:00:00
    TRACK 02 AUDIO
    TITLE "Ты (И.Крутой - И.Шаферан)"
    PERFORMER "А.Серов"
    INDEX 01 04:34:00
    TRACK 03 AUDIO
    TITLE "Почему? (Ю.Чернавский - Г.Кантор)"
    PERFORMER "А.Глызин"
    INDEX 01 08:16:00
    TRACK 04 AUDIO
    TITLE "Кроссворд (М.Гришунов - И.Севрюгина)"
    PERFORMER "группа Кроссворд"
    INDEX 01 12:55:00
    TRACK 05 AUDIO
    TITLE "Снежная королева (К.Кельми - А.Макаревич)"
    PERFORMER "К.Кельми"
    INDEX 01 15:44:00
    TRACK 06 AUDIO
    TITLE "Яблоги на снегу (М.Муромов - А.Дементьев)"
    PERFORMER "М.Муромов"
    INDEX 01 19:53:00
    TRACK 07 AUDIO
    TITLE "Провинция (И.Словесник - И.Резник)"
    PERFORMER "И.Словесник"
    INDEX 01 24:19:00
    TRACK 08 AUDIO
    TITLE "Гадалка (А.Шкуратов - Ю.Савельев)"
    PERFORMER "группа Аттракцион"
    INDEX 01 29:22:00
    TRACK 09 AUDIO
    TITLE "Один на льдине (В.Малежик - М.Журкин)"
    PERFORMER "В.Малежик"
    INDEX 01 33:00:00
    TRACK 10 AUDIO
    TITLE "Почему мы не вместе (В.Добрынин - В.Вишневский)"
    PERFORMER "О.Зарубина и Е.Головин"
    INDEX 01 35:45:00

    Уровни, Спектр, АЧХ

    VA - С Новым Годом! - Гороскоп 1989 (С60 27769 002)

    Год выпуска: 1989
    Лейбл: Мелодия
    Каталожный номер: С60 27769 002
    Страна-производитель: СССР
    Код класса состояния винила: VG+
    Устройство воспроизведения: Technics - SL1200 MK2
    Головка звукоснимателя: Audio-Technica AT-OC9/III
    Предварительный усилитель: Clearaudio Phonostage Basic+
    АЦП: RME HDSP 9632
    Программа-оцифровщик: Adobe Audition CS6
    Обработка: Паузы и крупные щелчки вручную.
    Треклист:
    Сторона 1
    A1. Обезьяна - А. Глызин
    A2. Собака - А. Градский
    A3. Дракон - А. Барыкин
    A4. Лошадь - А. Сапунов
    A5. Змея - В. Пресняков (мл.)
    B6. Петух - И. Николаев
    Сторона 2
    B7. Тигр - А. Пугачева
    B8. Кот - А. Кальянов
    B9. Свинья - С. Минаев
    B10. Крыса - В. Кузьмин
    B11. Коза - К. Орбакайте
    B12. Вол - А. Нефедов
    ОБЩЕЕ ВРЕМЯ ЗВУЧАНИЯ: 42:05
    Вокальная сюита: музыка В. Преснякова (старшего) на стихи В. Сауткина.
    Группа "Угол зрения" п/у В. Преснякова (старшего)

    CUE File

    REM GENRE Pop
    REM DATE © 1989
    REM COMMENT RUTRACKER.ORG - VINIL RIP & NIKON200
    PERFORMER "VA - С Новым годом!"
    TITLE "LP Stereo АОЛЗГ С60 27769 002"
    FILE "С60 27769 002.flac" WAVE
    TRACK 01 AUDIO
    TITLE "Обезьяна"
    PERFORMER "А. Глызин"
    INDEX 01 00:00:00
    TRACK 02 AUDIO
    TITLE "Собака"
    PERFORMER "А. Градский"
    INDEX 01 03:34:45
    TRACK 03 AUDIO
    TITLE "Дракон"
    PERFORMER "А. Барыкин"
    INDEX 01 06:11:65
    TRACK 04 AUDIO
    TITLE "Лошадь"
    PERFORMER "А. Сапунов"
    INDEX 01 08:54:00
    TRACK 05 AUDIO
    TITLE "Змея"
    PERFORMER "В. Пресняков (мл.)"
    INDEX 01 14:35:05
    TRACK 06 AUDIO
    TITLE "Петух"
    PERFORMER "И. Николаев "
    INDEX 01 18:00:00
    TRACK 07 AUDIO
    TITLE "Тигр"
    PERFORMER "А. Пугачева"
    INDEX 01 21:19:00
    TRACK 08 AUDIO
    TITLE "Кот"
    PERFORMER "А. Кальянов"
    INDEX 01 24:18:24
    TRACK 09 AUDIO
    TITLE "Свинья"
    PERFORMER "С. Минаев"
    INDEX 01 27:29:00
    TRACK 10 AUDIO
    TITLE "Крыса"
    PERFORMER "В. Кузьмин"
    INDEX 01 30:17:00
    TRACK 11 AUDIO
    TITLE "Коза"
    PERFORMER "К. Орбакайте"
    INDEX 01 34:10:00
    TRACK 12 AUDIO
    TITLE "Вол"
    PERFORMER "А. Нефедов"
    INDEX 01 37:13:60

    Уровни, Спектр, АЧХ

    VA - С Новым Годом! Новогодняя дискотека 1989 (С60 29267 008)

    Год выпуска: 1989
    Лейбл: Мелодия
    Каталожный номер: С60 29267 008
    Страна-производитель: СССР
    Код класса состояния винила: Exellent
    Устройство воспроизведения: Technics - SL2000
    Головка звукоснимателя: Audio-Technica AT440MLa
    Предварительный усилитель: Ламповый
    АЦП: ESI Juli@
    Программа-оцифровщик: Adobe Audition CS6
    Обработка: Паузы и крупные щелчки вручную.
    Треклист:

    Сторона 1

    A1. А снег рисует... (А.Харалов - В.Попов) А.Харалов
    A2. Страна лимония (музыка и слова С.Катина) Л.Долина
    A3. Падал снег (музыка и слова И.Саруханова) И.Саруханов
    A4. Время зовет меня (О.Парастаев - С.Миров) группа "НРГ"
    A5. Ты не ангел (В.Чайка - С.Осиашвили) А.Глызин
    Сторона 2
    B6. Птица певчая (музыка и слова В.Кузьмина) А.Пугачева
    На обложке написано: Обними меня (Л.Квинт - О.Клименкова) А.Билль и Л.Квинт
    На самом деле записано: Птица певчая (музыка и слова В.Кузьмина) А.Пугачева
    B7. Недотрога (музыка и слова В.Резникова) В.Пресняков младший
    B8. Борода (музыка и слова И.Словесника) И.Словесник
    B9. Улыбнись (С.Николаев - А.Чуланский) группа "Родмир"
    B10. Ночное рандеву (К.Кельми - К.Кавалерьян) группа "Рок-Ателье"
    ОБЩЕЕ ВРЕМЯ ЗВУЧАНИЯ: 42:25

    CUE File

    REM GENRE Pop
    REM DATE © 1989
    REM COMMENT RUTRACKER.ORG - VINIL RIP & NIKON200
    PERFORMER "VA - С Новым Годом!"
    TITLE "LP Stereo АОЛЗГ C60 29267 008"
    FILE "C60 29267 008.flac" WAVE
    TRACK 01 AUDIO
    TITLE "А снег рисует... (А.Харалов - В.Попов)"
    PERFORMER "А.Харалов"
    INDEX 01 00:00:00
    TRACK 02 AUDIO
    TITLE "Страна лимония (музыка и слова С.Катина)"
    PERFORMER "Л.Долина"
    INDEX 01 04:24:00
    TRACK 03 AUDIO
    TITLE "Падал снег (музыка и слова И.Саруханова)"
    PERFORMER "И.Саруханов"
    INDEX 01 07:57:00
    TRACK 04 AUDIO
    TITLE "Время зовет меня (О.Парастаев - С.Миров)"
    PERFORMER "группа НРГ"
    INDEX 01 13:26:00
    TRACK 05 AUDIO
    TITLE "Ты не ангел (В.Чайка - С.Осиашвили)"
    PERFORMER "А.Глызин"
    INDEX 01 17:06:00
    TRACK 06 AUDIO
    TITLE "Птица певчая (музыка и слова В.Кузьмина)"
    PERFORMER "А.Пугачева"
    INDEX 01 21:03:00
    TRACK 07 AUDIO
    TITLE "Недотрога (музыка и слова В.Резникова)"
    PERFORMER "В.Пресняков младший"
    INDEX 01 25:22:00
    TRACK 08 AUDIO
    TITLE "Борода (музыка и слова И.Словесника)"
    PERFORMER "И.Словесник"
    INDEX 01 30:13:00
    TRACK 09 AUDIO
    TITLE "Улыбнись (С.Николаев - А.Чуланский)"
    PERFORMER "группа Родмир"
    INDEX 01 34:26:00
    TRACK 10 AUDIO
    TITLE "Ночное рандеву (К.Кельми - К.Кавалерьян)"
    PERFORMER "группа Рок-Ателье"
    INDEX 01 37:42:00

    Уровни, Спектр, АЧХ

    CUE

    CUE файл и фото обложек, вшиты в файл во всех раздачах "С Новым Годом". Файл playlist.fpl для открытия всех файлов вместе. При конвертировании в формат 24/96 все данные (фото, плейлист) могут быть потеряны.
    Всех с наступающим С Новым 2014 Годом!!!

    О дисках.

    Диски оцифровывал в разный период, с апреля по ноябрь. Готовил под новогодние праздники. Это все, что смог найти в приличном состоянии.

    _________________
    [Профиль] [ЛС]
    Показать сообщения:    
    Ответить на тему

    Текущее время: Сегодня, в 20:41

    Часовой пояс: GMT + 2



    Вы не можете начинать темы
    Вы не можете отвечать на сообщения
    Вы не можете редактировать свои сообщения
    Вы не можете удалять свои сообщения
    Вы не можете голосовать в опросах
    Вы не можете прикреплять файлы к сообщениям
    Вы не можете скачивать файлы