BitTorrentTracker PerecTracker.org
BitTorrentTracker PerecTracker.org
    
Регистрация  ·  Вход
 
 · 
Забыли пароль?

  • Брежнев, которого мы не знали (Игорь Максимчук) [2013, Документальный, SATRip]

    Ответить на тему
     
    Автор Сообщение

    Columb

    Создавать темы 20-Дек-2013 20:06

           

    [Цитировать]

    Брежнев, которого мы не знали
    Год выпуска: 2013
    Страна: Россия
    Жанр: Документальный
    Продолжительность: 00:38:43
    Перевод: Не требуется
    Режиссер: Игорь Максимчук
    Описание: Леонид Ильич Брежнев стремительно взлетел по служебной лестнице в октябре 1952 года, на последнем при Сталине ХIХ съезде партии. Он стал секретарем ЦК, когда ему было всего сорок пять лет: Сталин решил укрепить партийный аппарат молодыми кадрами. Перед Брежневым открывались блестящие перспективы, но смерть вождя чуть было не поставила точку в его карьере...
    Доп. информация: Фильм Леонида Млечина
    Сэмпл: http://multi-up.com/933417
    качество: SATRip
    формат: AVI
    Видео: 640x480 (1.33:1), 25 fps, XviD build 50, 1497 kbps avg, 0.20 bit/pixel
    Аудио: 48 kHz, MPEG Layer 3, 2 ch, 128.00 kbps avg

    MediaInfo

    Brejnev.1.avi
    Format : AVI
    Format/Info : Audio Video Interleave
    File size : 453 MiB
    Duration : 38mn 43s
    Overall bit rate : 1 635 Kbps
    Writing application : VirtualDubMod 1.5.10.3 | www.virtualdub-fr.org || (build 2550/release)
    Writing library : VirtualDubMod build 2550/release
    Video #0
    ID : 0
    Format : MPEG-4 Visual
    Format profile : Advanced Simple@L5
    Format settings, BVOP : 2
    Format settings, QPel : No
    Format settings, GMC : No warppoints
    Format settings, Matrix : Default (MPEG)
    Codec ID : XVID
    Codec ID/Hint : XviD
    Duration : 38mn 43s
    Bit rate : 1 498 Kbps
    Width : 640 pixels
    Height : 480 pixels
    Display aspect ratio : 4:3
    Frame rate : 25.000 fps
    Color space : YUV
    Chroma subsampling : 4:2:0
    Bit depth : 8 bits
    Scan type : Progressive
    Compression mode : Lossy
    Bits/(Pixel*Frame) : 0.195
    Stream size : 415 MiB (92%)
    Writing library : XviD 1.2.1 (UTC 2008-12-04)
    Audio #1
    ID : 1
    Format : MPEG Audio
    Format version : Version 1
    Format profile : Layer 3
    Codec ID : 55
    Codec ID/Hint : MP3
    Duration : 38mn 43s
    Bit rate mode : Constant
    Bit rate : 128 Kbps
    Channel(s) : 2 channels
    Sampling rate : 48.0 KHz
    Compression mode : Lossy
    Stream size : 35.4 MiB (8%)
    Alignment : Aligned on interleaves
    Interleave, duration : 40 ms (1.00 video frame)
    Interleave, preload duration : 504 ms
    Writing library : LAME3.99r
    Encoding settings : -m s -V 4 -q 2 -lowpass 17 -b 128

    Скриншоты

    Скачать .torrent

    Скачать торрент-файл бесплатно и на максимальной скорости!

    Как скачивать? · Что такое торрент? · Рейтинг и ограничения

    !ВНИМАНИЕ!
    Сайт не распространяет и не хранит электронные версии произведений, а занимается лишь лишь предоставлением доступа к создаваемому пользователями каталогу ссылок на торрент-файлы, которые содержат только списки хеш-сумм, убедительная просьба с жалобами обращаться напрямую к пользователю. Файлы для обмена на трекере предоставлены пользователями сайта, и администрация не несёт ответственности за их содержание. Просьба не заливать файлы, защищенные авторскими правами, а также файлы нелегального содержания!

    [Профиль] [ЛС]
    Показать сообщения:    
    Ответить на тему

    Текущее время: Сегодня, в 16:35

    Часовой пояс: GMT + 2



    Вы не можете начинать темы
    Вы не можете отвечать на сообщения
    Вы не можете редактировать свои сообщения
    Вы не можете удалять свои сообщения
    Вы не можете голосовать в опросах
    Вы не можете прикреплять файлы к сообщениям
    Вы не можете скачивать файлы