BitTorrentTracker PerecTracker.org
BitTorrentTracker PerecTracker.org
    
Регистрация  ·  Вход
 
 · 
Забыли пароль?

  • За гранью / За пределами / Kyoukai no Kanata (Исидатэ Тайти) [TV] [12 из 12] [Без хардсаба] [RUS(int), JAP+SUB] [2013 г., приключения, мистика HDTVRip] [HWP]

    Ответить на тему
     
    Автор Сообщение

    Columb

    Создавать темы 20-Дек-2013 20:01

           

    [Цитировать]

    За гранью | Kyoukai no Kanata-Страна: Япония
    Год выпуска: 2013 г.
    Жанр: приключения, мистика
    Тип: TV
    Продолжительность: 12 эп., ~25 мин. серия
    Режиссер: Исидатэ Тайти
    Студия: -Описание: Главный герой новеллы - второкурсник Канбара Акихито, наполовину "йоому", благодаря чему обладает прекрасной регенерацией. Однажды Акихито встречает первокурсницу Мирай Курияма, которая собирается прыгнуть со школьной крыши. Способность Мирай - манипулировать кровью. Эта способность - одна из удивительных и самых опасных, даже по меркам духовного мира. World-art-Качество: HDTVRip (DS of [Leopard-Raws])
    Тип релиза: Без хардсаба
    Формат видео: AVI
    Совместимость с бытовыми плеерами: Да
    Энкод: [slipknot515ps
    Видео: XVID, ~1000 Кбит/сек, 704x396, 23,976 кадр/сек
    Аудио :
    1: Rus: MP3, 48.0 KHz, stereo, 192 kbps, int
    2: Jap: MP3, 48.0 KHz, stereo, 192 kbps, int
    Субтитры: Русские внешние, Язык субтитров -Перевод и озвучка:
    Тип озвучки: Многоголосая (6-15 голосов)(Семпл)-Добавлена 12 серия, обновите торрент!
    Релиз завершён. Всем приятного просмотра.
    -Если Вам нравятся работы нашей студии и вы хотите следить за новинками (там мы размещаем ссылки на рутрекер, новости, конкурсы и т.д.) то подписывайтесь на нашу страницу вконтакте. Т.к. здесь ссылки на оный запрещены - нас можно найти в гугле по запросу Gezell Studio, мы рады каждому из Вас)
    Удачи Вам и приятного просмотра, ваши Gezell Studio.

    Подробные тех. данные

    MediaInfo

    Общее
    Полное имя                               : D:\Видео\аниме\Kyoukai no Kanata [TV]\[Gezell] Kyoukai no Kanata - 01 [HWP].avi
    Формат                                   : AVI
    Формат/Информация                        : Audio Video Interleave
    Размер файла                             : 240 Мбайт
    Продолжительность                        : 24 м.
    Общий поток                              : 1398 Кбит/сек
    Программа кодирования                    : VirtualDubModRus 1.5.10.2 (build 2540/release)
    Библиотека кодирования                   : VirtualDubMod build 2540/release
    Видео
    Идентификатор                            : 0
    Формат                                   : MPEG-4 Visual
    Профиль формата                          : Advanced Simple@L5
    Параметр BVOP формата                    : 2
    Параметр QPel формата                    : Нет
    Параметр GMC формата                     : Без точки перехода
    Параметр матрицы формата                 : Default (H.263)
    Идентификатор кодека                     : XVID
    Идентификатор кодека/Подсказка           : XviD
    Продолжительность                        : 24 м.
    Битрейт                                  : 1000 Кбит/сек
    Ширина                                   : 704 пикселя
    Высота                                   : 396 пикселей
    Соотношение сторон                       : 16:9
    Частота кадров                           : 23,976 кадра/сек
    Цветовое пространство                    : YUV
    Субдискретизация насыщенности            : 4:2:0
    Битовая глубина                          : 8 бит
    Тип развёртки                            : Прогрессивная
    Метод сжатия                             : С потерями
    Бит/(Пиксели*Кадры)                      : 0.150
    Размер потока                            : 172 Мбайт (72%)
    Библиотека кодирования                   : XviD 64
    Аудио #1
    Идентификатор                            : 1
    Формат                                   : MPEG Audio
    Версия формата                           : Version 1
    Профиль формата                          : Layer 3
    Режим                                    : Joint stereo
    Идентификатор кодека                     : 55
    Идентификатор кодека/Подсказка           : MP3
    Продолжительность                        : 24 м.
    Вид битрейта                             : Постоянный
    Битрейт                                  : 192 Кбит/сек
    Каналы                                   : 2 канала
    Частота                                  : 48,0 КГц
    Метод сжатия                             : С потерями
    Размер потока                            : 33,0 Мбайт (14%)
    Выравнивание                             : Соединение по промежуткам
    Продолжительность промежутка             : 42  мс. (1,00 видеокадр)
    Время предзагрузки промежутка            : 504  мс.
    Заголовок                                : Gezell Studio
    Библиотека кодирования                   : LAME3.98.2
    Аудио #2
    Идентификатор                            : 2
    Формат                                   : MPEG Audio
    Версия формата                           : Version 1
    Профиль формата                          : Layer 3
    Режим                                    : Joint stereo
    Расширение режима                        : MS Stereo
    Идентификатор кодека                     : 55
    Идентификатор кодека/Подсказка           : MP3
    Продолжительность                        : 23 м.
    Вид битрейта                             : Постоянный
    Битрейт                                  : 192 Кбит/сек
    Каналы                                   : 2 канала
    Частота                                  : 48,0 КГц
    Метод сжатия                             : С потерями
    Размер потока                            : 33,0 Мбайт (14%)
    Выравнивание                             : Соединение по промежуткам
    Продолжительность промежутка             : 42  мс. (1,00 видеокадр)
    Время предзагрузки промежутка            : 504  мс.
    Библиотека кодирования                   : LAME3.98.2

    BitrateViewer

    Список эпизодов

    01. Кармин
    02. Ультрамарин
    03. Пурпур
    04. Горький апельсин
    05. Пьянящий свет
    06. Ядовито-розовый
    07. Цвет облаков
    08. Спокойный золотой
    09. Серебряный бамбук
    10. Белый мир
    11. Черный мир
    12. Серый мир

    Скриншоты

    Скачать .torrent

    Скачать торрент-файл бесплатно и на максимальной скорости!

    Как скачивать? · Что такое торрент? · Рейтинг и ограничения

    !ВНИМАНИЕ!
    Сайт не распространяет и не хранит электронные версии произведений, а занимается лишь лишь предоставлением доступа к создаваемому пользователями каталогу ссылок на торрент-файлы, которые содержат только списки хеш-сумм, убедительная просьба с жалобами обращаться напрямую к пользователю. Файлы для обмена на трекере предоставлены пользователями сайта, и администрация не несёт ответственности за их содержание. Просьба не заливать файлы, защищенные авторскими правами, а также файлы нелегального содержания!

    [Профиль] [ЛС]
    Показать сообщения:    
    Ответить на тему

    Текущее время: Сегодня, в 07:54

    Часовой пояс: GMT + 2



    Вы не можете начинать темы
    Вы не можете отвечать на сообщения
    Вы не можете редактировать свои сообщения
    Вы не можете удалять свои сообщения
    Вы не можете голосовать в опросах
    Вы не можете прикреплять файлы к сообщениям
    Вы не можете скачивать файлы