BitTorrentTracker PerecTracker.org
BitTorrentTracker PerecTracker.org
    
Регистрация  ·  Вход
 
 · 
Забыли пароль?

  • Два ствола / 2 Guns (Бальтасар Кормакур / Baltasar Kormakur) [2013, США, боевик, триллер, драма, комедия, криминал, BDRip 720p] Dub + 2x AVO + Original eng + Sub rus, eng

    Ответить на тему
     
    Автор Сообщение

    Columb

    Создавать темы 20-Дек-2013 19:53

           

    [Цитировать]

    Два ствола / 2 Guns
    Страна: США
    Жанр: боевик, триллер, драма, комедия, криминал
    Год выпуска: 2013
    Продолжительность: 01:49:15
    Перевод#1: Профессиональный (дублированный) | BD CEE
    Перевод#2: Авторский (одноголосый закадровый), Ю. Сербин, без цензуры
    Перевод#3: Авторский (одноголосый закадровый), Л. Володарский
    Cубтитры: русские, английские
    Оригинальная аудиодорожка: английский
    Режиссер: Бальтасар Кормакур / Baltasar Kormakur
    В ролях: Дензел Вашингтон, Марк Уолберг, Пола Пэттон, Билл Пэкстон, Фред Уорд, Джеймс Марсден, Роберт Джон Бёрк, Фред Уорд, Патрик Фишлер, Лаки Джонсон
    Описание: Это история двух грабителей, которые на самом деле не те, кем кажутся. Один из них - агент из управления по борьбе с наркотиками, а другой - тайный агент разведки ВМС. Сами того не желая, они занимаются расследованием дел друг друга, а также воруют деньги у мафии. Через некоторое время героям придется украсть 50 миллионов долларов у ЦРУ...

    Доп. информация: за дороги благодарим пользователей и форума E180. Заставка в дубляже заменена
    Тип релиза: BDRip 720p (от HiDt) | sample
    Контейнер: MKV
    Видео кодек: x264
    Видео: AVC 1280x534 (2.40:1), 23.976 fps, ~6430 Kbps, 0.39 bit/pixel
    Аудио #1: Russian AC3 6ch 48kHz 640Kbps | Dub BD CEE
    Аудио #2: Russian AC3 6ch 48kHz 640Kbps | AVO Сербин
    Аудио #3: Russian AC3 6ch 48kHz 640Kbps | AVO Володарский
    Аудио #4: English AC3 6ch 48kHz 640Kbps | Original
    Формат субтитров: softsub (SRT)
    Главы: есть

    MediaInfo

    General
    Complete name : E:\...\2.Guns.2013.720p.BluRay.x264.DD5.1.Rus.Eng-HiDt.mkv
    Format : Matroska
    Format version : Version 2
    File size : 6.86 GiB
    Duration : 1h 49mn
    Overall bit rate : 8 991 Kbps
    Movie name : 2.Guns.2013.720p.BluRay.x264.DD5.1.Rus.Eng-HiDt
    Encoded date : UTC 2013-12-19 22:55:05
    Writing application : mkvmerge v6.5.0 ('Isn't she lovely') built on Oct 20 2013 12:50:05
    Writing library : libebml v1.3.0 + libmatroska v1.4.1
    Video
    ID : 1
    Format : AVC
    Format/Info : Advanced Video Codec
    Format profile : High@L4.1
    Format settings, CABAC : Yes
    Format settings, ReFrames : 12 frames
    Codec ID : V_MPEG4/ISO/AVC
    Duration : 1h 49mn
    Bit rate : 6 434 Kbps
    Width : 1 280 pixels
    Height : 534 pixels
    Display aspect ratio : 2.40:1
    Frame rate mode : Constant
    Frame rate : 23.976 fps
    Color space : YUV
    Chroma subsampling : 4:2:0
    Bit depth : 8 bits
    Scan type : Progressive
    Bits/(Pixel*Frame) : 0.393
    Stream size : 4.77 GiB (70%)
    Title : HiDt
    Writing library : x264 core 140 r2377 1ca7bb9
    Encoding settings : cabac=1 / ref=12 / deblock=1:-3:-3 / analyse=0x3:0x113 / me=tesa / subme=11 / psy=1 / psy_rd=0.94:0.00 / mixed_ref=1 / me_range=32 / chroma_me=1 / trellis=2 / 8x8dct=1 / cqm=0 / deadzone=21,11 / fast_pskip=0 / chroma_qp_offset=-2 / threads=12 / lookahead_threads=2 / sliced_threads=0 / nr=0 / decimate=1 / interlaced=0 / bluray_compat=0 / constrained_intra=0 / bframes=7 / b_pyramid=2 / b_adapt=2 / b_bias=0 / direct=3 / weightb=1 / open_gop=0 / weightp=2 / keyint=240 / keyint_min=23 / scenecut=40 / intra_refresh=0 / rc_lookahead=80 / rc=2pass / mbtree=1 / bitrate=6434 / ratetol=1.0 / qcomp=0.70 / qpmin=0 / qpmax=69 / qpstep=4 / cplxblur=20.0 / qblur=0.5 / vbv_maxrate=40000 / vbv_bufsize=40000 / nal_hrd=none / filler=0 / ip_ratio=1.40 / aq=1:0.80
    Language : English
    Default : No
    Forced : No
    Audio #1
    ID : 2
    Format : AC-3
    Format/Info : Audio Coding 3
    Mode extension : CM (complete main)
    Format settings, Endianness : Big
    Codec ID : A_AC3
    Duration : 1h 49mn
    Bit rate mode : Constant
    Bit rate : 640 Kbps
    Channel(s) : 6 channels
    Channel positions : Front: L C R, Side: L R, LFE
    Sampling rate : 48.0 KHz
    Bit depth : 16 bits
    Compression mode : Lossy
    Stream size : 500 MiB (7%)
    Title : Dub BD CEE
    Language : Russian
    Default : Yes
    Forced : No
    Audio #2
    ID : 3
    Format : AC-3
    Format/Info : Audio Coding 3
    Mode extension : CM (complete main)
    Format settings, Endianness : Big
    Codec ID : A_AC3
    Duration : 1h 49mn
    Bit rate mode : Constant
    Bit rate : 640 Kbps
    Channel(s) : 6 channels
    Channel positions : Front: L C R, Side: L R, LFE
    Sampling rate : 48.0 KHz
    Bit depth : 16 bits
    Compression mode : Lossy
    Stream size : 500 MiB (7%)
    Title : AVO Serbin
    Language : Russian
    Default : No
    Forced : No
    Audio #3
    ID : 4
    Format : AC-3
    Format/Info : Audio Coding 3
    Mode extension : CM (complete main)
    Format settings, Endianness : Big
    Codec ID : A_AC3
    Duration : 1h 49mn
    Bit rate mode : Constant
    Bit rate : 640 Kbps
    Channel(s) : 6 channels
    Channel positions : Front: L C R, Side: L R, LFE
    Sampling rate : 48.0 KHz
    Bit depth : 16 bits
    Compression mode : Lossy
    Stream size : 500 MiB (7%)
    Title : AVO Volodarsky
    Language : Russian
    Default : No
    Forced : No
    Audio #4
    ID : 5
    Format : AC-3
    Format/Info : Audio Coding 3
    Mode extension : CM (complete main)
    Format settings, Endianness : Big
    Codec ID : A_AC3
    Duration : 1h 49mn
    Bit rate mode : Constant
    Bit rate : 640 Kbps
    Channel(s) : 6 channels
    Channel positions : Front: L C R, Side: L R, LFE
    Sampling rate : 48.0 KHz
    Bit depth : 16 bits
    Compression mode : Lossy
    Stream size : 500 MiB (7%)
    Title : Original
    Language : English
    Default : No
    Forced : No
    Text #1
    ID : 6
    Format : UTF-8
    Codec ID : S_TEXT/UTF8
    Codec ID/Info : UTF-8 Plain Text
    Title : Forced
    Language : Russian
    Default : Yes
    Forced : No
    Text #2
    ID : 7
    Format : UTF-8
    Codec ID : S_TEXT/UTF8
    Codec ID/Info : UTF-8 Plain Text
    Title : BD CEE
    Language : Russian
    Default : No
    Forced : No
    Text #3
    ID : 8
    Format : UTF-8
    Codec ID : S_TEXT/UTF8
    Codec ID/Info : UTF-8 Plain Text
    Title : voronine
    Language : Russian
    Default : No
    Forced : No
    Text #4
    ID : 9
    Format : UTF-8
    Codec ID : S_TEXT/UTF8
    Codec ID/Info : UTF-8 Plain Text
    Language : English
    Default : No
    Forced : No
    Text #5
    ID : 10
    Format : UTF-8
    Codec ID : S_TEXT/UTF8
    Codec ID/Info : UTF-8 Plain Text
    Title : SDH
    Language : English
    Default : No
    Forced : No
    Menu
    00:00:00.000 : en:Chapter 01
    00:05:36.044 : en:Chapter 02
    00:10:44.185 : en:Chapter 03
    00:15:15.205 : en:Chapter 04
    00:20:42.282 : en:Chapter 05
    00:24:47.736 : en:Chapter 06
    00:29:20.842 : en:Chapter 07
    00:36:24.098 : en:Chapter 08
    00:40:56.370 : en:Chapter 09
    00:45:39.278 : en:Chapter 10
    00:52:17.050 : en:Chapter 11
    00:58:13.781 : en:Chapter 12
    01:05:49.987 : en:Chapter 13
    01:10:28.682 : en:Chapter 14
    01:14:35.387 : en:Chapter 15
    01:20:14.559 : en:Chapter 16
    01:24:46.915 : en:Chapter 17
    01:31:11.924 : en:Chapter 18
    01:38:23.647 : en:Chapter 19
    01:41:02.639 : en:Chapter 20

    Скриншоты

    source vs HiDt




    *Перезалито 20.12, прикручен звук с лицензии
    Скачать .torrent

    Скачать торрент-файл бесплатно и на максимальной скорости!

    Как скачивать? · Что такое торрент? · Рейтинг и ограничения

    !ВНИМАНИЕ!
    Сайт не распространяет и не хранит электронные версии произведений, а занимается лишь лишь предоставлением доступа к создаваемому пользователями каталогу ссылок на торрент-файлы, которые содержат только списки хеш-сумм, убедительная просьба с жалобами обращаться напрямую к пользователю. Файлы для обмена на трекере предоставлены пользователями сайта, и администрация не несёт ответственности за их содержание. Просьба не заливать файлы, защищенные авторскими правами, а также файлы нелегального содержания!

    [Профиль] [ЛС]
    Показать сообщения:    
    Ответить на тему

    Текущее время: Сегодня, в 00:08

    Часовой пояс: GMT + 2



    Вы не можете начинать темы
    Вы не можете отвечать на сообщения
    Вы не можете редактировать свои сообщения
    Вы не можете удалять свои сообщения
    Вы не можете голосовать в опросах
    Вы не можете прикреплять файлы к сообщениям
    Вы не можете скачивать файлы