BitTorrentTracker PerecTracker.org
BitTorrentTracker PerecTracker.org
    
Регистрация  ·  Вход
 
 · 
Забыли пароль?

  • Roмmeo и Dжульeттa / Rоmео аnd Juliеt (Kaрлo Kaрлeй / Саrlо Саrlеi) [2013, Великобритания, Италия, Швейцария, драма, мелодрама, DVD9] R5 Dub

    Ответить на тему
     
    Автор Сообщение

    Columb

    Создавать темы 20-Дек-2013 19:51

           

    [Цитировать]

    -Ромео и Джульетта / Romeo and Juliet-«Величайшая история любви всех времён»-Страна: Великобритания, Италия, Швейцария
    Студия: Amber Entertainment, Indiana Production Company, Swarovski Entertainment
    Жанр: драма, мелодрама
    Год выпуска: 2013
    Мировая премьера: 24 сентября 2013
    Российская премьера: 17 октября 2013, «Вольга»
    Дата выхода DVD: 17 декабря 2013, «Вольга»
    Дата выхода Blu-Ray: 17 декабря 2013, «Вольга»
    Продолжительность: 01:53:18
    Перевод: Профессиональный (дублированный) [Лицензия]
    Cубтитры: нет
    Оригинальная аудиодорожка: нет-Режиссер: Карло Карлей / Carlo Carlei-В ролях: Дуглас Бут, Хейли Стайнфелд, Дэмиэн Льюис, Коди Смит-МакФи, Эд Вествик, Пол Джаматти, Томас Арана, Наташа МакЭлхоун, Стеллан Скарсгард, Лесли Мэнвилл...-Описание: Верона. Эпоха Раннего Возрождения. Юноша и девушка из враждующих семей влюбляются друг в друга. Рок не дает им быть вместе. Лишь смерть на пике запретной страсти помогает Ромео и Джульетте спасти свою любовь.-Бонусы: Интервью создателей и исполнителей, Мужчины Вероны, На съемочной площадке- -Релиз группы:-Качество: DVD9 R5
    Формат: DVD-Video
    Видео кодек: MPEG2
    Аудио кодек: AC3 + DTS
    Видео: PAL 16:9 (720x576(0.589)) MPEG Video, 25,000 кадр/сек, 6107 Кбит/сек
    Аудио #1: Russian (Dolby AC3, 6 ch) 256 Кбит/сек, 48,0 КГц
    Аудио #2: Russian (DTS, 6 ch) 768 Кбит/сек, 48,0 КГц--

    DVDInfo

    Title: Romeo.i.Dzhuletta.2013.DVD9
    Size: 6.76 Gb ( 7 088 746,00 KBytes ) - DVD-9
    Enabled regions: 1, 2, 3, 4, 5, 6, 7, 8
    VTS_01 :
    Play Length: 00:00:10
    Video: PAL 16:9 (720x576) VBR, Auto Pan&Scan, Auto Letterboxed
    VTS_02 :
    Play Length: 00:00:06
    Video: PAL 16:9 (720x576) VBR, Auto Pan&Scan, Auto Letterboxed
    VTS_03 :
    Play Length: 01:53:18
    Video: PAL 16:9 (720x576) VBR, Auto Pan&Scan, Auto Letterboxed
    Audio:
    Not specified (Dolby AC3, 6 ch)
    Not specified (DTS, 6 ch)
    Subtitles:
    Not specified
    Not specified
    Not specified
    Not specified
    Not specified
    Not specified
    Not specified
    Not specified
    Not specified
    Not specified
    Not specified
    Not specified
    Not specified
    Not specified
    VTS_04 :
    Play Length: 00:00:05
    Video: PAL 16:9 (720x576) VBR, Auto Pan&Scan, Auto Letterboxed
    Audio:
    Not specified (Dolby AC3, 6 ch)
    Not specified (Dolby AC3, 6 ch)
    VTS_05 :
    Play Length: 00:25:12
    Video: PAL 16:9 (720x576) VBR, Auto Pan&Scan, Auto Letterboxed
    Audio:
    Not specified (Dolby AC3, 2 ch)
    Not specified (Dolby AC3, 2 ch)
    VTS_06 :
    Play Length: 00:05:35
    Video: PAL 16:9 (720x576) VBR, Auto Pan&Scan, Auto Letterboxed
    Audio:
    Not specified (Dolby AC3, 2 ch)
    Not specified (Dolby AC3, 2 ch)
    VTS_07 :
    Play Length: 00:02:47
    Video: PAL 16:9 (720x576) VBR, Auto Pan&Scan, Auto Letterboxed
    Audio:
    Not specified (Dolby AC3, 2 ch)
    Not specified (Dolby AC3, 2 ch)
    * Menus Information *
    VIDEO_TS Menu
    Video:
    PAL 16:9 (720x576) VBR
    Auto Pan&Scan, Auto Letterboxed
    English Language Unit :
    Title Menu
    VTS_01 Menu
    Video:
    PAL 16:9 (720x576) VBR
    Auto Pan&Scan, Auto Letterboxed
    Audio:
    Not specified (Dolby AC3, 6 ch)
    English Language Unit :
    Root Menu
    VTS_02 Menu
    Video:
    PAL 4:3 (720x576) VBR
    English Language Unit :
    Root Menu
    VTS_03 Menu
    Video:
    PAL 4:3 (720x576) VBR
    English Language Unit :
    Root Menu
    VTS_04 Menu
    Video:
    PAL 4:3 (720x576) VBR
    English Language Unit :
    Root Menu
    VTS_05 Menu
    Video:
    PAL 4:3 (720x576) VBR
    English Language Unit :
    Root Menu
    VTS_06 Menu
    Video:
    PAL 4:3 (720x576) VBR
    English Language Unit :
    Root Menu
    VTS_07 Menu
    Video:
    PAL 4:3 (720x576) VBR
    English Language Unit :
    Root Menu

    MediaInfo

    Общее
    Полное имя : K:\Новинки 2013\Romeo.i.Dzhuletta.2013.DVD9\VIDEO_TS\VTS_03_3.VOB
    Формат : MPEG-PS
    Размер файла : 1024 Мбайт
    Продолжительность : 19 м.
    Режим общего битрейта : Переменный
    Общий поток : 7262 Кбит/сек
    Видео
    Идентификатор : 224 (0xE0)
    Формат : MPEG Video
    Версия формата : Version 2
    Профиль формата : Main@Main
    Параметр BVOP формата : Да
    Параметр матрицы формата : Выборочная
    Параметр GOP формата : M=3, N=12
    Продолжительность : 19 м.
    Вид битрейта : Переменный
    Битрейт : 6107 Кбит/сек
    Максимальный битрейт : 8300 Кбит/сек
    Ширина : 720 пикселей
    Высота : 576 пикселей
    Соотношение сторон : 16:9
    Частота кадров : 25,000 кадров/сек
    Стандарт вещания : PAL
    Цветовое пространство : YUV
    Субдискретизация насыщенности : 4:2:0
    Битовая глубина : 8 бит
    Тип развёртки : Чересстрочная
    Порядок развёртки : Верхнее поле первое
    Метод сжатия : С потерями
    Бит/(Пиксели*Кадры) : 0.589
    Временной код первого кадра : 01:42:11:13
    Оригинал временного кода : Group of pictures header
    Размер потока : 861 Мбайт (84%)
    Основные цвета : BT.601 PAL
    Характеристики трансфера : BT.470 System B, BT.470 System G
    Коэффициенты матрицы : BT.601
    Аудио #1
    Идентификатор : 189 (0xBD)-128 (0x80)
    Формат : AC-3
    Формат/Информация : Audio Coding 3
    Расширение режима : CM (complete main)
    Параметр Endianness формата : Big
    Режим смешивания : DVD-Video
    Продолжительность : 19 м.
    Вид битрейта : Постоянный
    Битрейт : 256 Кбит/сек
    Каналы : 6 каналов
    Расположение каналов : Front: L C R, Side: L R, LFE
    Частота : 48,0 КГц
    Битовая глубина : 16 бит
    Метод сжатия : С потерями
    Задержка видео : -608 мс.
    Размер потока : 36,1 Мбайт (4%)
    Аудио #2
    Идентификатор : 189 (0xBD)-137 (0x89)
    Формат : DTS
    Формат/Информация : Digital Theater Systems
    Режим : 16
    Параметр Endianness формата : Big
    Режим смешивания : DVD-Video
    Продолжительность : 19 м.
    Вид битрейта : Постоянный
    Битрейт : 755 Кбит/сек
    Каналы : 6 каналов
    Расположение каналов : Front: L C R, Side: L R, LFE
    Частота : 48,0 КГц
    Битовая глубина : 16 бит
    Метод сжатия : С потерями
    Задержка видео : -651 мс.
    Размер потока : 106 Мбайт (10%)
    Текст
    Идентификатор : 189 (0xBD)-45 (0x2D)
    Формат : RLE
    Формат/Информация : Run-length encoding
    Режим смешивания : DVD-Video
    Продолжительность : 19 м.
    Задержка видео : 320 мс.

    Скриншоты меню

    Скриншоты фильма

    Скриншоты доп. материалов

    --Раздача от группы:
    Скачать .torrent

    Скачать торрент-файл бесплатно и на максимальной скорости!

    Как скачивать? · Что такое торрент? · Рейтинг и ограничения

    !ВНИМАНИЕ!
    Сайт не распространяет и не хранит электронные версии произведений, а занимается лишь лишь предоставлением доступа к создаваемому пользователями каталогу ссылок на торрент-файлы, которые содержат только списки хеш-сумм, убедительная просьба с жалобами обращаться напрямую к пользователю. Файлы для обмена на трекере предоставлены пользователями сайта, и администрация не несёт ответственности за их содержание. Просьба не заливать файлы, защищенные авторскими правами, а также файлы нелегального содержания!

    [Профиль] [ЛС]
    Показать сообщения:    
    Ответить на тему

    Текущее время: Сегодня, в 10:17

    Часовой пояс: GMT + 2



    Вы не можете начинать темы
    Вы не можете отвечать на сообщения
    Вы не можете редактировать свои сообщения
    Вы не можете удалять свои сообщения
    Вы не можете голосовать в опросах
    Вы не можете прикреплять файлы к сообщениям
    Вы не можете скачивать файлы